Featured TV Shows


The Middle S09E09

Posted By: Tavaz
1080p (FullHD) / WEB-DL IMDb
The Middle S09E09

The Middle S09E09
WEB-DL | MKV | 1920x1080 | English | H264 @ 14630 kbps | E-AC-3 @ 640 kbps | 21 min 34 s | 2.30 GiB
Subtitles: English
Genre: Comedy

The daily mishaps of a married woman and her semi-dysfunctional family and their attempts to survive life in general in the city of Orson, Indiana.

c078a60bcc8d428f9365932fd3e5fd38.mkv (2.3 GB)



General
Unique ID : 207015505249502453978883452459123264791 (0x9BBDBC6DDAC1F4C38212FCA2BD24CD17)
Complete name : ./c078a60bcc8d428f9365932fd3e5fd38.mkv
Format : Matroska
Format version : Version 4 / Version 2
File size : 2.30 GiB
Duration : 21 min 34 s
Overall bit rate mode : Variable
Overall bit rate : 15.3 Mb/s
Encoded date : UTC 2017-12-06 17:12:38
Writing application : mkvmerge v18.0.0 ('Apricity') 64-bit
Writing library : libebml v1.3.5 + libmatroska v1.4.8

Video
ID : 1
Format : AVC
Format/Info : Advanced Video Codec
Format profile : High@L4
Format settings : CABAC / 4 Ref Frames
Format settings, CABAC : Yes
Format settings, RefFrames : 4 frames
Codec ID : V_MPEG4/ISO/AVC
Duration : 21 min 34 s
Bit rate mode : Variable
Bit rate : 14.6 Mb/s
Maximum bit rate : 15.0 Mb/s
Width : 1 920 pixels
Height : 1 080 pixels
Display aspect ratio : 16:9
Frame rate mode : Constant
Frame rate : 23.976 (24000/1001) FPS
Color space : YUV
Chroma subsampling : 4:2:0
Bit depth : 8 bits
Scan type : Progressive
Bits/(Pixel*Frame) : 0.294
Stream size : 2.20 GiB (96%)
Language : English
Default : Yes
Forced : No
Color range : Limited
Color primaries : BT.709
Transfer characteristics : BT.709
Matrix coefficients : BT.709

Audio
ID : 2
Format : E-AC-3
Format/Info : Enhanced Audio Coding 3
Format settings, Endianness : Big
Codec ID : A_EAC3
Duration : 21 min 34 s
Bit rate mode : Constant
Bit rate : 640 kb/s
Channel(s) : 6 channels
Channel positions : Front: L C R, Side: L R, LFE
Sampling rate : 48.0 kHz
Frame rate : 187.500 FPS (256 SPF)
Compression mode : Lossy
Stream size : 98.7 MiB (4%)
Language : English
Service kind : Complete Main
Default : Yes
Forced : No

Text
ID : 3
Format : UTF-8
Codec ID : S_TEXT/UTF8
Codec ID/Info : UTF-8 Plain Text
Duration : 21 min 18 s
Bit rate : 120 b/s
Count of elements : 644
Stream size : 18.8 KiB (0%)
Language : English
Default : No
Forced : No





The Middle S09E09


The Middle S09E09


The Middle S09E09


The Middle S09E09


The Middle S09E09

All episodes