Featured TV Shows


The Middle S09E12

Posted By: Tavaz
720p (HD) / WEB-DL IMDb
The Middle S09E12

The Middle S09E12
WEB-DL | MKV | 1280x720 | English | H264 @ 4108 kbps | E-AC-3 @ 640 kbps | 21 min 31 s | 732 MiB
Subtitles: English
Genre: Comedy

The daily mishaps of a married woman and her semi-dysfunctional family and their attempts to survive life in general in the city of Orson, Indiana.

7654bca274a549ce87b0b0f83856f7c2.mkv (731.7 MB)



General
Unique ID : 182337503045290730551785676953624381989 (0x892CECFB542922B480A020A3D77A0A25)
Complete name : ./7654bca274a549ce87b0b0f83856f7c2.mkv
Format : Matroska
Format version : Version 4 / Version 2
File size : 732 MiB
Duration : 21 min 31 s
Overall bit rate mode : Variable
Overall bit rate : 4 751 kb/s
Encoded date : UTC 2018-01-10 10:42:14
Writing application : mkvmerge v19.0.0 ('Brave Captain') 64-bit
Writing library : libebml v1.3.5 + libmatroska v1.4.8

Video
ID : 1
Format : AVC
Format/Info : Advanced Video Codec
Format profile : High@L3.1
Format settings : CABAC / 5 Ref Frames
Format settings, CABAC : Yes
Format settings, RefFrames : 5 frames
Codec ID : V_MPEG4/ISO/AVC
Duration : 21 min 31 s
Bit rate mode : Variable
Bit rate : 4 109 kb/s
Maximum bit rate : 4 500 kb/s
Width : 1 280 pixels
Height : 720 pixels
Display aspect ratio : 16:9
Frame rate mode : Constant
Frame rate : 23.976 (24000/1001) FPS
Color space : YUV
Chroma subsampling : 4:2:0
Bit depth : 8 bits
Scan type : Progressive
Bits/(Pixel*Frame) : 0.186
Stream size : 633 MiB (86%)
Language : English
Default : Yes
Forced : No
Color range : Limited
Color primaries : BT.709
Transfer characteristics : BT.709
Matrix coefficients : BT.709

Audio
ID : 2
Format : E-AC-3
Format/Info : Enhanced Audio Coding 3
Format settings, Endianness : Big
Codec ID : A_EAC3
Duration : 21 min 31 s
Bit rate mode : Constant
Bit rate : 640 kb/s
Channel(s) : 6 channels
Channel positions : Front: L C R, Side: L R, LFE
Sampling rate : 48.0 kHz
Frame rate : 187.500 FPS (256 SPF)
Compression mode : Lossy
Stream size : 98.6 MiB (13%)
Language : English
Service kind : Complete Main
Default : Yes
Forced : No

Text
ID : 3
Format : UTF-8
Codec ID : S_TEXT/UTF8
Codec ID/Info : UTF-8 Plain Text
Duration : 21 min 13 s
Bit rate : 129 b/s
Count of elements : 582
Stream size : 20.1 KiB (0%)
Language : English
Default : No
Forced : No





The Middle S09E12


The Middle S09E12


The Middle S09E12


The Middle S09E12


The Middle S09E12

All episodes