Featured TV Shows


The Vietnam War S01E09

Posted By: Tavaz
The Vietnam War S01E09

The Vietnam War S01E09
MKV | 1280x720 | Dutch | H264 @ 1816 kbps | AC-3 @ 256 kbps | 55 min 31 s | 840 MiB
Genre: Phim Tài Liệu



The Vietnam War 20180523.mkv (839.8 MB)



General
Unique ID : 148676229109097902416823248981819800240 (0x6FDA000AE0A9E3113F375DE0C6523AB0)
Complete name : ./The Vietnam War 20180523.mkv
Format : Matroska
Format version : Version 4 / Version 2
File size : 840 MiB
Duration : 55 min 31 s
Overall bit rate : 2 114 kb/s
Encoded date : UTC 2018-05-24T07:45:10Z
Writing application : HandBrake 1.1.0 2018040700
Writing library : Lavf57.7.2

Video
ID : 1
Format : AVC
Format/Info : Advanced Video Codec
Format profile : Main@L3.1
Format settings : CABAC / 4 Ref Frames
Format settings, CABAC : Yes
Format settings, RefFrames : 4 frames
Codec ID : V_MPEG4/ISO/AVC
Duration : 55 min 31 s
Bit rate : 1 816 kb/s
Width : 1 280 pixels
Height : 720 pixels
Display aspect ratio : 16:9
Frame rate mode : Constant
Frame rate : 25.000 FPS
Color space : YUV
Chroma subsampling : 4:2:0
Bit depth : 8 bits
Scan type : Progressive
Bits/(Pixel*Frame) : 0.079
Stream size : 721 MiB (86%)
Writing library : x264 core 155 r2893 b00bcaf
Encoding settings : cabac=1 / ref=2 / deblock=1:0:0 / analyse=0x1:0x111 / me=hex / subme=6 / psy=1 / psy_rd=1.00:0.00 / mixed_ref=1 / me_range=16 / chroma_me=1 / trellis=1 / 8x8dct=0 / cqm=0 / deadzone=21,11 / fast_pskip=1 / chroma_qp_offset=-2 / threads=18 / lookahead_threads=3 / sliced_threads=0 / nr=0 / decimate=1 / interlaced=0 / bluray_compat=0 / constrained_intra=0 / bframes=3 / b_pyramid=2 / b_adapt=1 / b_bias=0 / direct=1 / weightb=1 / open_gop=0 / weightp=1 / keyint=250 / keyint_min=25 / scenecut=40 / intra_refresh=0 / rc_lookahead=30 / rc=crf / mbtree=1 / crf=21.0 / qcomp=0.60 / qpmin=0 / qpmax=69 / qpstep=4 / vbv_maxrate=14000 / vbv_bufsize=14000 / crf_max=0.0 / nal_hrd=none / filler=0 / ip_ratio=1.40 / aq=1:1.00
Default : Yes
Forced : No
Color range : Limited
Color primaries : BT.709
Transfer characteristics : BT.709
Matrix coefficients : BT.709

Audio
ID : 2
Format : AC-3
Format/Info : Audio Coding 3
Format settings, Endianness : Big
Codec ID : A_AC3
Duration : 55 min 31 s
Bit rate mode : Constant
Bit rate : 256 kb/s
Channel(s) : 2 channels
Channel positions : Front: L R
Sampling rate : 48.0 kHz
Frame rate : 31.250 FPS (1536 SPF)
Bit depth : 16 bits
Compression mode : Lossy
Stream size : 102 MiB (12%)
Title : Stereo
Language : Dutch
Service kind : Complete Main
Default : Yes
Forced : No





The Vietnam War S01E09


The Vietnam War S01E09


The Vietnam War S01E09


The Vietnam War S01E09


The Vietnam War S01E09

All episodes