Index
# A B C D E F G H I J K L M N O P Q R S T U V W Y Z
Tags
Language
Tags

Featured TV Shows


The Woman in the House Across the Street from the Girl in the Window S01E02

Posted By: Tavaz
1080p (FullHD) / WEBRip IMDb
The Woman in the House Across the Street from the Girl in the Window S01E02

The Woman in the House Across the Street from the Girl in the Window S01E02
WEBRip | MOV | 1920x1080 | Français / Deutsch / Español / Italiano / English / Português / Русский | H264 @ 6174 kbps | E-AC-3 @ 640 kbps | 26 min 48 s | 2.26 GiB
Genre: Misteri, Kejahatan, Drama, Komedi


For Anna, every day is the same. She sits with her wine, staring out the window, watching life go by without her. But when a handsome neighbor moves in across the street, Anna starts to see a light at the end of the tunnel. That is until she witnesses a gruesome murder… Or did she?

758b66a66f1a4c8ea0953842c62bf553.mkv (2.3 GB)



General
Complete name : ./758b66a66f1a4c8ea0953842c62bf553.mkv
Format : MPEG-4
Format profile : Base Media
Codec ID : isom (isom/iso2/avc1/mp41)
File size : 2.26 GiB
Duration : 26 min 48 s
Overall bit rate : 12.1 Mb/s
Writing application : FlixGrab Plus
FileExtension_Invalid : mov mp4 m4v m4a m4b m4p 3ga 3gpa 3gpp 3gp 3gpp2 3g2 k3g jpm jpx mqv ismv isma ismt f4a f4b f4v

Video
ID : 1
Format : AVC
Format/Info : Advanced Video Codec
Format profile : High@L4
Format settings : CABAC / 3 Ref Frames
Format settings, CABAC : Yes
Format settings, RefFrames : 3 frames
Codec ID : avc1
Codec ID/Info : Advanced Video Coding
Duration : 26 min 48 s
Bit rate : 6 174 kb/s
Width : 1 920 pixels
Height : 1 080 pixels
Display aspect ratio : 16:9
Frame rate mode : Constant
Frame rate : 23.976 (24000/1001) FPS
Color space : YUV
Chroma subsampling : 4:2:0
Bit depth : 8 bits
Scan type : Progressive
Bits/(Pixel*Frame) : 0.124
Stream size : 1.16 GiB (51%)

Audio #1
ID : 2
Format : E-AC-3
Format/Info : Enhanced Audio Coding 3
Format settings, Endianness : Big
Codec ID : ec-3
Duration : 26 min 48 s
Bit rate mode : Constant
Bit rate : 640 kb/s
Channel(s) : 6 channels
Channel positions : Front: L C R, Side: L R, LFE
Sampling rate : 48.0 kHz
Frame rate : 187.500 FPS (256 SPF)
Bit depth : 16 bits
Compression mode : Lossy
Stream size : 123 MiB (5%)
Language : French
Service kind : Complete Main
Default : Yes
Alternate group : 1

Audio #2
ID : 3
Format : E-AC-3
Format/Info : Enhanced Audio Coding 3
Format settings, Endianness : Big
Codec ID : ec-3
Duration : 26 min 48 s
Bit rate mode : Constant
Bit rate : 640 kb/s
Channel(s) : 6 channels
Channel positions : Front: L C R, Side: L R, LFE
Sampling rate : 48.0 kHz
Frame rate : 187.500 FPS (256 SPF)
Bit depth : 16 bits
Compression mode : Lossy
Stream size : 123 MiB (5%)
Language : Portuguese
Service kind : Complete Main
Default : No
Alternate group : 1

Audio #3
ID : 4
Format : E-AC-3
Format/Info : Enhanced Audio Coding 3
Format settings, Endianness : Big
Codec ID : ec-3
Duration : 26 min 48 s
Bit rate mode : Constant
Bit rate : 640 kb/s
Channel(s) : 6 channels
Channel positions : Front: L C R, Side: L R, LFE
Sampling rate : 48.0 kHz
Frame rate : 187.500 FPS (256 SPF)
Bit depth : 16 bits
Compression mode : Lossy
Stream size : 123 MiB (5%)
Language : English
Service kind : Complete Main
Default : No
Alternate group : 1

Audio #4
ID : 5
Format : E-AC-3
Format/Info : Enhanced Audio Coding 3
Format profile : E-AC-3+Atmos / E-AC-3
Format settings, Endianness : Big
Codec ID : ec-3
Duration : 26 min 48 s
Bit rate mode : Constant
Bit rate : 768 kb/s
Channel(s) : 15 objects / 6 channels
Channel positions : 15 objects / Front: L C R, Side: L R, LFE
Sampling rate : 48.0 kHz
Frame rate : 187.500 FPS (256 SPF)
Bit depth : 16 bits
Compression mode : Lossy
Stream size : 147 MiB (6%)
Language : English
Service kind : Complete Main
Default : No
Alternate group : 1

Audio #5
ID : 6
Format : E-AC-3
Format/Info : Enhanced Audio Coding 3
Format settings, Endianness : Big
Codec ID : ec-3
Duration : 26 min 48 s
Bit rate mode : Constant
Bit rate : 640 kb/s
Channel(s) : 6 channels
Channel positions : Front: L C R, Side: L R, LFE
Sampling rate : 48.0 kHz
Frame rate : 187.500 FPS (256 SPF)
Bit depth : 16 bits
Compression mode : Lossy
Stream size : 123 MiB (5%)
Language : Spanish
Service kind : Complete Main
Default : No
Alternate group : 1

Audio #6
ID : 7
Format : E-AC-3
Format/Info : Enhanced Audio Coding 3
Format settings, Endianness : Big
Codec ID : ec-3
Duration : 26 min 48 s
Bit rate mode : Constant
Bit rate : 640 kb/s
Channel(s) : 6 channels
Channel positions : Front: L C R, Side: L R, LFE
Sampling rate : 48.0 kHz
Frame rate : 187.500 FPS (256 SPF)
Bit depth : 16 bits
Compression mode : Lossy
Stream size : 123 MiB (5%)
Language : German
Service kind : Complete Main
Default : No
Alternate group : 1

Audio #7
ID : 8
Format : E-AC-3
Format/Info : Enhanced Audio Coding 3
Format settings, Endianness : Big
Codec ID : ec-3
Duration : 26 min 48 s
Bit rate mode : Constant
Bit rate : 640 kb/s
Channel(s) : 6 channels
Channel positions : Front: L C R, Side: L R, LFE
Sampling rate : 48.0 kHz
Frame rate : 187.500 FPS (256 SPF)
Bit depth : 16 bits
Compression mode : Lossy
Stream size : 123 MiB (5%)
Language : Italian
Service kind : Complete Main
Default : No
Alternate group : 1

Audio #8
ID : 9
Format : E-AC-3
Format/Info : Enhanced Audio Coding 3
Format settings, Endianness : Big
Codec ID : ec-3
Duration : 26 min 48 s
Bit rate mode : Constant
Bit rate : 640 kb/s
Channel(s) : 6 channels
Channel positions : Front: L C R, Side: L R, LFE
Sampling rate : 48.0 kHz
Frame rate : 187.500 FPS (256 SPF)
Bit depth : 16 bits
Compression mode : Lossy
Stream size : 123 MiB (5%)
Language : Spanish
Service kind : Complete Main
Default : No
Alternate group : 1

Audio #9
ID : 10
Format : E-AC-3
Format/Info : Enhanced Audio Coding 3
Format settings, Endianness : Big
Codec ID : ec-3
Duration : 26 min 48 s
Bit rate mode : Constant
Bit rate : 640 kb/s
Channel(s) : 6 channels
Channel positions : Front: L C R, Side: L R, LFE
Sampling rate : 48.0 kHz
Frame rate : 187.500 FPS (256 SPF)
Bit depth : 16 bits
Compression mode : Lossy
Stream size : 123 MiB (5%)
Language : Russian
Service kind : Complete Main
Default : No
Alternate group : 1





The Woman in the House Across the Street from the Girl in the Window S01E02


The Woman in the House Across the Street from the Girl in the Window S01E02


The Woman in the House Across the Street from the Girl in the Window S01E02


The Woman in the House Across the Street from the Girl in the Window S01E02


The Woman in the House Across the Street from the Girl in the Window S01E02

All episodes