Index
# A B C D E F G H I J K L M N O P Q R S T U V W Y Z
Tags
Language
Tags

Featured TV Shows


The Woman in the House Across the Street from the Girl in the Window S01E01

Posted By: Tavaz
1080p (FullHD) / WEBRip IMDb
The Woman in the House Across the Street from the Girl in the Window S01E01

The Woman in the House Across the Street from the Girl in the Window S01E01
WEB-DL | MKV | 1920x1080 | English / Deutsch | H264 @ 6730 kbps | E-AC-3 @ 640 kbps | 29 min 26 s | 1.67 GiB
Subtitles: Hrvatski, Français, Deutsch, Suomi, Español, Magyar, Polski, Italiano, Ελληνικά, Türkçe, Bahasa Indonesia, Svenska, Dansk, English, Nederlands, Русский, Українська, Português, Čeština
Genre: Mystery, Crime, Drama, Comedy


For Anna, every day is the same. She sits with her wine, staring out the window, watching life go by without her. But when a handsome neighbor moves in across the street, Anna starts to see a light at the end of the tunnel. That is until she witnesses a gruesome murder… Or did she?

the.woman.in.the.house.across.the.street.from.the.girl.in.the.window.s01e01.german.dl.1080p.web.x264.repack-wayne.mkv (1.7 GB)



General
Unique ID : 207747902320268556297004446083311006254 (0x9C4ACA64839E4DC4A3408C3F32E8F22E)
Complete name : ./the.woman.in.the.house.across.the.street.from.the.girl.in.the.window.s01e01.german.dl.1080p.web.x264.repack-wayne.mkv
Format : Matroska
Format version : Version 4 / Version 2
File size : 1.67 GiB
Duration : 29 min 26 s
Overall bit rate mode : Variable
Overall bit rate : 8 135 kb/s
Encoded date : UTC 2022-01-28 08:11:23
Writing application : mkvmerge v64.0.0 ('Willows') 64-bit
Writing library : libebml v1.4.2 + libmatroska v1.6.4

Video
ID : 1
Format : AVC
Format/Info : Advanced Video Codec
Format profile : High@L4
Format settings : CABAC / 4 Ref Frames
Format settings, CABAC : Yes
Format settings, RefFrames : 4 frames
Codec ID : V_MPEG4/ISO/AVC
Duration : 29 min 24 s
Bit rate mode : Variable
Bit rate : 6 730 kb/s
Maximum bit rate : 20.0 Mb/s
Width : 1 920 pixels
Height : 1 080 pixels
Display aspect ratio : 16:9
Frame rate mode : Constant
Frame rate : 23.976 (24000/1001) FPS
Color space : YUV
Chroma subsampling : 4:2:0
Bit depth : 8 bits
Scan type : Progressive
Bits/(Pixel*Frame) : 0.135
Stream size : 1.38 GiB (83%)
Writing library : x264 core 148 r2727 7d026e8
Encoding settings : cabac=1 / ref=4 / deblock=1:0:0 / analyse=0x3:0x111 / me=umh / subme=10 / psy=1 / psy_rd=1.00:0.00 / mixed_ref=1 / me_range=120 / chroma_me=1 / trellis=2 / 8x8dct=1 / cqm=0 / deadzone=21,11 / fast_pskip=1 / chroma_qp_offset=-2 / threads=8 / lookahead_threads=2 / sliced_threads=0 / nr=0 / decimate=1 / interlaced=0 / bluray_compat=0 / stitchable=1 / constrained_intra=0 / bframes=16 / b_pyramid=2 / b_adapt=2 / b_bias=0 / direct=3 / weightb=1 / open_gop=0 / weightp=2 / keyint=240 / keyint_min=121 / scenecut=0 / intra_refresh=0 / rc_lookahead=240 / rc=crf / mbtree=1 / crf=17.0 / qcomp=0.50 / qpmin=6 / qpmax=51 / qpstep=4 / vbv_maxrate=20000 / vbv_bufsize=25000 / crf_max=0.0 / nal_hrd=vbr / filler=0 / ip_ratio=1.40 / aq=1:0.80
Default : Yes
Forced : No

Audio #1
ID : 2
Format : E-AC-3
Format/Info : Enhanced Audio Coding 3
Format settings, Endianness : Big
Codec ID : A_EAC3
Duration : 29 min 26 s
Bit rate mode : Constant
Bit rate : 640 kb/s
Channel(s) : 6 channels
Channel positions : Front: L C R, Side: L R, LFE
Sampling rate : 48.0 kHz
Frame rate : 187.500 FPS (256 SPF)
Compression mode : Lossy
Stream size : 135 MiB (8%)
Language : German
Service kind : Complete Main
Default : Yes
Forced : No

Audio #2
ID : 3
Format : E-AC-3
Format/Info : Enhanced Audio Coding 3
Format profile : E-AC-3+Atmos / E-AC-3
Format settings, Endianness : Big
Codec ID : A_EAC3
Duration : 29 min 26 s
Bit rate mode : Constant
Bit rate : 768 kb/s
Channel(s) : 15 objects / 6 channels
Channel positions : 15 objects / Front: L C R, Side: L R, LFE
Sampling rate : 48.0 kHz
Frame rate : 187.500 FPS (256 SPF)
Compression mode : Lossy
Stream size : 162 MiB (9%)
Language : English
Service kind : Complete Main
Default : Yes
Forced : No

Text #1
ID : 4
Format : UTF-8
Codec ID : S_TEXT/UTF8
Codec ID/Info : UTF-8 Plain Text
Duration : 27 min 57 s
Bit rate : 1 b/s
Count of elements : 9
Stream size : 270 Bytes (0%)
Title : German Forced
Language : German
Default : Yes
Forced : Yes

Text #2
ID : 5
Format : UTF-8
Codec ID : S_TEXT/UTF8
Codec ID/Info : UTF-8 Plain Text
Duration : 27 min 57 s
Bit rate : 35 b/s
Count of elements : 265
Stream size : 7.36 KiB (0%)
Title : German
Language : German
Default : No
Forced : No

Text #3
ID : 6
Format : UTF-8
Codec ID : S_TEXT/UTF8
Codec ID/Info : UTF-8 Plain Text
Duration : 27 min 57 s
Bit rate : 35 b/s
Count of elements : 279
Stream size : 7.24 KiB (0%)
Title : Czech
Language : Czech
Default : No
Forced : No

Text #4
ID : 7
Format : UTF-8
Codec ID : S_TEXT/UTF8
Codec ID/Info : UTF-8 Plain Text
Duration : 27 min 57 s
Bit rate : 34 b/s
Count of elements : 269
Stream size : 7.04 KiB (0%)
Title : Danish
Language : Danish
Default : No
Forced : No

Text #5
ID : 8
Format : UTF-8
Codec ID : S_TEXT/UTF8
Codec ID/Info : UTF-8 Plain Text
Duration : 27 min 57 s
Bit rate : 60 b/s
Count of elements : 282
Stream size : 12.4 KiB (0%)
Title : Greek
Language : Greek
Default : No
Forced : No

Text #6
ID : 9
Format : UTF-8
Codec ID : S_TEXT/UTF8
Codec ID/Info : UTF-8 Plain Text
Duration : 27 min 59 s
Bit rate : 49 b/s
Count of elements : 404
Stream size : 10.1 KiB (0%)
Title : English
Language : English
Default : No
Forced : No

Text #7
ID : 10
Format : UTF-8
Codec ID : S_TEXT/UTF8
Codec ID/Info : UTF-8 Plain Text
Duration : 27 min 57 s
Bit rate : 33 b/s
Count of elements : 279
Stream size : 6.80 KiB (0%)
Title : Spanish
Language : Spanish
Default : No
Forced : No

Text #8
ID : 11
Format : UTF-8
Codec ID : S_TEXT/UTF8
Codec ID/Info : UTF-8 Plain Text
Duration : 27 min 57 s
Bit rate : 33 b/s
Count of elements : 279
Stream size : 6.86 KiB (0%)
Title : European Spanish
Language : Spanish
Default : No
Forced : No

Text #9
ID : 12
Format : UTF-8
Codec ID : S_TEXT/UTF8
Codec ID/Info : UTF-8 Plain Text
Duration : 27 min 57 s
Bit rate : 34 b/s
Count of elements : 267
Stream size : 7.01 KiB (0%)
Title : Finnish
Language : Finnish
Default : No
Forced : No

Text #10
ID : 13
Format : UTF-8
Codec ID : S_TEXT/UTF8
Codec ID/Info : UTF-8 Plain Text
Duration : 27 min 57 s
Bit rate : 33 b/s
Count of elements : 264
Stream size : 6.86 KiB (0%)
Title : French
Language : French
Default : No
Forced : No

Text #11
ID : 14
Format : UTF-8
Codec ID : S_TEXT/UTF8
Codec ID/Info : UTF-8 Plain Text
Duration : 27 min 57 s
Bit rate : 31 b/s
Count of elements : 296
Stream size : 6.44 KiB (0%)
Title : Croatian
Language : Croatian
Default : No
Forced : No

Text #12
ID : 15
Format : UTF-8
Codec ID : S_TEXT/UTF8
Codec ID/Info : UTF-8 Plain Text
Duration : 27 min 57 s
Bit rate : 34 b/s
Count of elements : 271
Stream size : 6.98 KiB (0%)
Title : Hungarian
Language : Hungarian
Default : No
Forced : No

Text #13
ID : 16
Format : UTF-8
Codec ID : S_TEXT/UTF8
Codec ID/Info : UTF-8 Plain Text
Duration : 27 min 57 s
Bit rate : 35 b/s
Count of elements : 281
Stream size : 7.17 KiB (0%)
Title : Indonesian
Language : Indonesian
Default : No
Forced : No

Text #14
ID : 17
Format : UTF-8
Codec ID : S_TEXT/UTF8
Codec ID/Info : UTF-8 Plain Text
Duration : 27 min 57 s
Bit rate : 35 b/s
Count of elements : 264
Stream size : 7.25 KiB (0%)
Title : Italian
Language : Italian
Default : No
Forced : No

Text #15
ID : 18
Format : UTF-8
Codec ID : S_TEXT/UTF8
Codec ID/Info : UTF-8 Plain Text
Duration : 27 min 58 s
Bit rate : 34 b/s
Count of elements : 282
Stream size : 7.03 KiB (0%)
Title : Malay
Language : Malayalam
Default : No
Forced : No

Text #16
ID : 19
Format : UTF-8
Codec ID : S_TEXT/UTF8
Codec ID/Info : UTF-8 Plain Text
Duration : 27 min 57 s
Bit rate : 33 b/s
Count of elements : 248
Stream size : 6.76 KiB (0%)
Title : Norwegian Bokmal
Language : Norwegian
Default : No
Forced : No

Text #17
ID : 20
Format : UTF-8
Codec ID : S_TEXT/UTF8
Codec ID/Info : UTF-8 Plain Text
Duration : 27 min 57 s
Bit rate : 34 b/s
Count of elements : 231
Stream size : 7.12 KiB (0%)
Title : Dutch
Language : Dutch
Default : No
Forced : No

Text #18
ID : 21
Format : UTF-8
Codec ID : S_TEXT/UTF8
Codec ID/Info : UTF-8 Plain Text
Duration : 27 min 57 s
Bit rate : 31 b/s
Count of elements : 285
Stream size : 6.53 KiB (0%)
Title : Polish
Language : Polish
Default : No
Forced : No

Text #19
ID : 22
Format : UTF-8
Codec ID : S_TEXT/UTF8
Codec ID/Info : UTF-8 Plain Text
Duration : 28 min 0 s
Bit rate : 35 b/s
Count of elements : 267
Stream size : 7.21 KiB (0%)
Title : Portuguese
Language : Portuguese
Default : No
Forced : No

Text #20
ID : 23
Format : UTF-8
Codec ID : S_TEXT/UTF8
Codec ID/Info : UTF-8 Plain Text
Duration : 27 min 57 s
Bit rate : 35 b/s
Count of elements : 296
Stream size : 7.19 KiB (0%)
Title : Brazilian Portuguese
Language : Portuguese
Default : No
Forced : No

Text #21
ID : 24
Format : UTF-8
Codec ID : S_TEXT/UTF8
Codec ID/Info : UTF-8 Plain Text
Duration : 27 min 57 s
Bit rate : 55 b/s
Count of elements : 319
Stream size : 11.3 KiB (0%)
Title : Russian
Language : Russian
Default : No
Forced : No

Text #22
ID : 25
Format : UTF-8
Codec ID : S_TEXT/UTF8
Codec ID/Info : UTF-8 Plain Text
Duration : 27 min 57 s
Bit rate : 34 b/s
Count of elements : 249
Stream size : 7.02 KiB (0%)
Title : Swedish
Language : Swedish
Default : No
Forced : No

Text #23
ID : 26
Format : UTF-8
Codec ID : S_TEXT/UTF8
Codec ID/Info : UTF-8 Plain Text
Duration : 27 min 57 s
Bit rate : 36 b/s
Count of elements : 277
Stream size : 7.41 KiB (0%)
Title : Turkish
Language : Turkish
Default : No
Forced : No

Text #24
ID : 27
Format : UTF-8
Codec ID : S_TEXT/UTF8
Codec ID/Info : UTF-8 Plain Text
Duration : 27 min 57 s
Bit rate : 59 b/s
Count of elements : 288
Stream size : 12.1 KiB (0%)
Title : Ukrainian
Language : Ukrainian
Default : No
Forced : No





The Woman in the House Across the Street from the Girl in the Window S01E01


The Woman in the House Across the Street from the Girl in the Window S01E01


The Woman in the House Across the Street from the Girl in the Window S01E01


The Woman in the House Across the Street from the Girl in the Window S01E01


The Woman in the House Across the Street from the Girl in the Window S01E01

All episodes