Index
# A B C D E F G H I J K L M N O P Q R S T U V W Y Z
Tags
Language
Tags

Featured TV Shows


The Woman in the House Across the Street from the Girl in the Window S01E06

Posted By: Tavaz
720p (HD) / WEBRip IMDb
The Woman in the House Across the Street from the Girl in the Window S01E06

The Woman in the House Across the Street from the Girl in the Window S01E06
WEB-DL | MKV | 1280x720 | English / Deutsch | H264 @ 1850 kbps | E-AC-3 @ 640 kbps | 22 min 12 s | 518 MiB
Subtitles: English, Deutsch
Genre: Mystery, Crime, Drama, Comedy


For Anna, every day is the same. She sits with her wine, staring out the window, watching life go by without her. But when a handsome neighbor moves in across the street, Anna starts to see a light at the end of the tunnel. That is until she witnesses a gruesome murder… Or did she?

the.woman.in.the.house.across.the.street.from.the.girl.in.the.window.s01e06.german.dl.720p.web.x264-wvf.mkv (517.8 MB)



General
Unique ID : 318043740892253591712060328284260852100 (0xEF44FF157136BE1A06B398773FC6E184)
Complete name : ./the.woman.in.the.house.across.the.street.from.the.girl.in.the.window.s01e06.german.dl.720p.web.x264-wvf.mkv
Format : Matroska
Format version : Version 4 / Version 2
File size : 518 MiB
Duration : 22 min 12 s
Overall bit rate mode : Variable
Overall bit rate : 3 260 kb/s
Encoded date : UTC 2022-01-28 08:27:34
Writing application : mkvmerge v51.0.0 ('I Wish') 64-bit
Writing library : libebml v1.4.0 + libmatroska v1.6.2

Video
ID : 1
Format : AVC
Format/Info : Advanced Video Codec
Format profile : Main@L3.1
Format settings : CABAC / 3 Ref Frames
Format settings, CABAC : Yes
Format settings, RefFrames : 3 frames
Codec ID : V_MPEG4/ISO/AVC
Duration : 22 min 11 s
Bit rate mode : Variable
Bit rate : 1 850 kb/s
Nominal bit rate : 2 008 kb/s
Maximum bit rate : 3 390 kb/s
Width : 1 280 pixels
Height : 720 pixels
Display aspect ratio : 16:9
Frame rate mode : Constant
Frame rate : 23.976 (24000/1001) FPS
Color space : YUV
Chroma subsampling : 4:2:0
Bit depth : 8 bits
Scan type : Progressive
Bits/(Pixel*Frame) : 0.084
Stream size : 294 MiB (57%)
Writing library : x264 core 148 r2727 7d026e8
Encoding settings : cabac=1 / ref=3 / deblock=1:0:0 / analyse=0x1:0x111 / me=umh / subme=10 / psy=1 / psy_rd=1.00:0.00 / mixed_ref=1 / me_range=24 / chroma_me=1 / trellis=2 / 8x8dct=0 / cqm=0 / deadzone=21,11 / fast_pskip=1 / chroma_qp_offset=-2 / threads=8 / lookahead_threads=1 / sliced_threads=0 / nr=0 / decimate=1 / interlaced=0 / bluray_compat=0 / stitchable=1 / constrained_intra=0 / bframes=2 / b_pyramid=0 / b_adapt=2 / b_bias=0 / direct=3 / weightb=1 / open_gop=0 / weightp=2 / keyint=250 / keyint_min=23 / scenecut=0 / intra_refresh=0 / rc_lookahead=48 / rc=2pass / mbtree=1 / bitrate=2008 / ratetol=1.0 / qcomp=0.50 / qpmin=6 / qpmax=51 / qpstep=4 / cplxblur=20.0 / qblur=0.5 / vbv_maxrate=3390 / vbv_bufsize=4520 / nal_hrd=vbr / filler=0 / ip_ratio=1.40 / aq=1:1.00
Default : Yes
Forced : No

Audio #1
ID : 2
Format : E-AC-3
Format/Info : Enhanced Audio Coding 3
Format settings, Endianness : Big
Codec ID : A_EAC3
Duration : 22 min 12 s
Bit rate mode : Constant
Bit rate : 640 kb/s
Channel(s) : 6 channels
Channel positions : Front: L C R, Side: L R, LFE
Sampling rate : 48.0 kHz
Frame rate : 187.500 FPS (256 SPF)
Compression mode : Lossy
Stream size : 102 MiB (20%)
Language : German
Service kind : Complete Main
Default : Yes
Forced : No

Audio #2
ID : 3
Format : E-AC-3
Format/Info : Enhanced Audio Coding 3
Format profile : E-AC-3+Atmos / E-AC-3
Format settings, Endianness : Big
Codec ID : A_EAC3
Duration : 22 min 11 s
Bit rate mode : Constant
Bit rate : 768 kb/s
Channel(s) : 15 objects / 6 channels
Channel positions : 15 objects / Front: L C R, Side: L R, LFE
Sampling rate : 48.0 kHz
Frame rate : 187.500 FPS (256 SPF)
Compression mode : Lossy
Stream size : 122 MiB (24%)
Language : English
Service kind : Complete Main
Default : No
Forced : No

Text #1
ID : 4
Format : UTF-8
Codec ID : S_TEXT/UTF8
Codec ID/Info : UTF-8 Plain Text
Duration : 20 min 42 s
Bit rate : 1 b/s
Count of elements : 6
Stream size : 162 Bytes (0%)
Title : German_Forced
Language : German
Default : Yes
Forced : Yes

Text #2
ID : 5
Format : UTF-8
Codec ID : S_TEXT/UTF8
Codec ID/Info : UTF-8 Plain Text
Duration : 20 min 42 s
Bit rate : 54 b/s
Count of elements : 245
Stream size : 8.30 KiB (0%)
Title : German_Full
Language : German
Default : No
Forced : No

Text #3
ID : 6
Format : UTF-8
Codec ID : S_TEXT/UTF8
Codec ID/Info : UTF-8 Plain Text
Duration : 20 min 41 s
Bit rate : 70 b/s
Count of elements : 345
Stream size : 10.6 KiB (0%)
Title : English_Full
Language : English
Default : No
Forced : No





The Woman in the House Across the Street from the Girl in the Window S01E06


The Woman in the House Across the Street from the Girl in the Window S01E06


The Woman in the House Across the Street from the Girl in the Window S01E06


The Woman in the House Across the Street from the Girl in the Window S01E06


The Woman in the House Across the Street from the Girl in the Window S01E06

All episodes