Featured TV Shows


Too Old to Die Young S01E02

Posted By: Tavaz
1080p (FullHD) / WEB-DL IMDb
Too Old to Die Young S01E02

Too Old to Die Young S01E02
WEB-DL | MKV | 1920x1040 | English | H264 @ 8756 kbps | E-AC-3 @ 640 kbps | 1 h 37 min | 6.38 GiB
Subtitles: Swedish, Telugu, Turkish, Hindi, Dutch, Korean, Danish, Indonesian, Norwegian Bokmal, French, Russian, Thai, Tamil, Finnish, Spanish, English, Italian, Portuguese, Chinese, German, Hebrew, Polish, Arabic
Genre: Crime, Drama


A grieving police officer, along with the man who shot his partner, finds himself in an underworld filled with working-class hit men, Yakuza soldiers, cartel assassins sent from Mexico, Russian mafia captains and gangs of teen killers.

9778381a9fe5410499a68b67cf4da460.mkv (6.4 GB)



General
Unique ID : 135706472593155412039531586323590545656 (0x66181DAD06E8F4ABB713CEA28DCE00F8)
Complete name : ./9778381a9fe5410499a68b67cf4da460.mkv
Format : Matroska
Format version : Version 4 / Version 2
File size : 6.38 GiB
Duration : 1 h 37 min
Overall bit rate : 9 399 kb/s
Encoded date : UTC 2019-06-14 00:53:37
Writing application : mkvmerge v21.0.0 ('Tardigrades Will Inherit The Earth') 64-bit
Writing library : libebml v1.3.5 + libmatroska v1.4.8

Video
ID : 1
Format : AVC
Format/Info : Advanced Video Codec
Format profile : High@L4
Format settings : CABAC / 4 Ref Frames
Format settings, CABAC : Yes
Format settings, RefFrames : 4 frames
Format settings, GOP : M=4, N=48
Codec ID : V_MPEG4/ISO/AVC
Duration : 1 h 37 min
Bit rate mode : Constant
Bit rate : 8 756 kb/s
Nominal bit rate : 10 000 kb/s
Width : 1 920 pixels
Height : 1 040 pixels
Display aspect ratio : 1.85:1
Frame rate mode : Constant
Frame rate : 24.000 FPS
Color space : YUV
Chroma subsampling : 4:2:0
Bit depth : 8 bits
Scan type : Progressive
Bits/(Pixel*Frame) : 0.183
Stream size : 5.94 GiB (93%)
Default : Yes
Forced : No
Color range : Limited
Color primaries : BT.709
Transfer characteristics : BT.709
Matrix coefficients : BT.709

Audio
ID : 2
Format : E-AC-3
Format/Info : Enhanced Audio Coding 3
Format settings, Endianness : Big
Codec ID : A_EAC3
Duration : 1 h 37 min
Bit rate mode : Constant
Bit rate : 640 kb/s
Channel(s) : 6 channels
Channel positions : Front: L C R, Side: L R, LFE
Sampling rate : 48.0 kHz
Frame rate : 187.500 FPS (256 SPF)
Compression mode : Lossy
Stream size : 445 MiB (7%)
Language : English
Service kind : Complete Main
Default : Yes
Forced : No

Text #1
ID : 3
Format : UTF-8
Codec ID : S_TEXT/UTF8
Codec ID/Info : UTF-8 Plain Text
Duration : 1 h 24 min
Bit rate : 16 b/s
Count of elements : 441
Stream size : 10.1 KiB (0%)
Title : Forced
Language : English
Default : Yes
Forced : Yes

Text #2
ID : 4
Format : UTF-8
Codec ID : S_TEXT/UTF8
Codec ID/Info : UTF-8 Plain Text
Duration : 1 h 27 min
Bit rate : 16 b/s
Count of elements : 475
Stream size : 10.6 KiB (0%)
Language : English
Default : No
Forced : No

Text #3
ID : 5
Format : UTF-8
Codec ID : S_TEXT/UTF8
Codec ID/Info : UTF-8 Plain Text
Duration : 1 h 33 min
Bit rate : 17 b/s
Count of elements : 555
Stream size : 11.9 KiB (0%)
Title : SDH
Language : English
Default : No
Forced : No

Text #4
ID : 6
Format : UTF-8
Codec ID : S_TEXT/UTF8
Codec ID/Info : UTF-8 Plain Text
Duration : 1 h 27 min
Bit rate : 27 b/s
Count of elements : 452
Stream size : 17.5 KiB (0%)
Language : Arabic
Default : No
Forced : No

Text #5
ID : 7
Format : UTF-8
Codec ID : S_TEXT/UTF8
Codec ID/Info : UTF-8 Plain Text
Duration : 1 h 27 min
Bit rate : 15 b/s
Count of elements : 448
Stream size : 9.85 KiB (0%)
Title : 中文(简体)
Language : Chinese
Default : No
Forced : No

Text #6
ID : 8
Format : UTF-8
Codec ID : S_TEXT/UTF8
Codec ID/Info : UTF-8 Plain Text
Duration : 1 h 27 min
Bit rate : 14 b/s
Count of elements : 448
Stream size : 9.07 KiB (0%)
Title : 中文(繁體)
Language : Chinese
Default : No
Forced : No

Text #7
ID : 9
Format : UTF-8
Codec ID : S_TEXT/UTF8
Codec ID/Info : UTF-8 Plain Text
Duration : 1 h 27 min
Bit rate : 15 b/s
Count of elements : 450
Stream size : 10.1 KiB (0%)
Language : Danish
Default : No
Forced : No

Text #8
ID : 10
Format : UTF-8
Codec ID : S_TEXT/UTF8
Codec ID/Info : UTF-8 Plain Text
Duration : 1 h 27 min
Bit rate : 17 b/s
Count of elements : 441
Stream size : 11.2 KiB (0%)
Language : German
Default : No
Forced : No

Text #9
ID : 11
Format : UTF-8
Codec ID : S_TEXT/UTF8
Codec ID/Info : UTF-8 Plain Text
Duration : 1 h 7 min
Bit rate : 0 b/s
Count of elements : 15
Stream size : 206 Bytes (0%)
Title : Latinoamérica
Language : Spanish
Default : No
Forced : No

Text #10
ID : 12
Format : UTF-8
Codec ID : S_TEXT/UTF8
Codec ID/Info : UTF-8 Plain Text
Duration : 1 h 7 min
Bit rate : 1 b/s
Count of elements : 37
Stream size : 919 Bytes (0%)
Title : España
Language : Spanish
Default : No
Forced : No

Text #11
ID : 13
Format : UTF-8
Codec ID : S_TEXT/UTF8
Codec ID/Info : UTF-8 Plain Text
Duration : 1 h 27 min
Bit rate : 15 b/s
Count of elements : 451
Stream size : 9.86 KiB (0%)
Language : Finnish
Default : No
Forced : No

Text #12
ID : 14
Format : UTF-8
Codec ID : S_TEXT/UTF8
Codec ID/Info : UTF-8 Plain Text
Duration : 1 h 27 min
Bit rate : 16 b/s
Count of elements : 447
Stream size : 10.4 KiB (0%)
Language : French
Default : No
Forced : No

Text #13
ID : 15
Format : UTF-8
Codec ID : S_TEXT/UTF8
Codec ID/Info : UTF-8 Plain Text
Duration : 1 h 27 min
Bit rate : 25 b/s
Count of elements : 448
Stream size : 16.1 KiB (0%)
Language : Hebrew
Default : No
Forced : No

Text #14
ID : 16
Format : UTF-8
Codec ID : S_TEXT/UTF8
Codec ID/Info : UTF-8 Plain Text
Duration : 1 h 27 min
Bit rate : 40 b/s
Count of elements : 452
Stream size : 25.8 KiB (0%)
Language : Hindi
Default : No
Forced : No

Text #15
ID : 17
Format : UTF-8
Codec ID : S_TEXT/UTF8
Codec ID/Info : UTF-8 Plain Text
Duration : 1 h 27 min
Bit rate : 15 b/s
Count of elements : 452
Stream size : 9.87 KiB (0%)
Language : Indonesian
Default : No
Forced : No

Text #16
ID : 18
Format : UTF-8
Codec ID : S_TEXT/UTF8
Codec ID/Info : UTF-8 Plain Text
Duration : 1 h 27 min
Bit rate : 14 b/s
Count of elements : 452
Stream size : 9.53 KiB (0%)
Language : Italian
Default : No
Forced : No

Text #17
ID : 19
Format : UTF-8
Codec ID : S_TEXT/UTF8
Codec ID/Info : UTF-8 Plain Text
Duration : 1 h 27 min
Bit rate : 16 b/s
Count of elements : 452
Stream size : 10.8 KiB (0%)
Language : Korean
Default : No
Forced : No

Text #18
ID : 20
Format : UTF-8
Codec ID : S_TEXT/UTF8
Codec ID/Info : UTF-8 Plain Text
Duration : 1 h 27 min
Bit rate : 15 b/s
Count of elements : 452
Stream size : 9.93 KiB (0%)
Language : Norwegian Bokmal
Default : No
Forced : No

Text #19
ID : 21
Format : UTF-8
Codec ID : S_TEXT/UTF8
Codec ID/Info : UTF-8 Plain Text
Duration : 1 h 27 min
Bit rate : 15 b/s
Count of elements : 447
Stream size : 9.77 KiB (0%)
Language : Dutch
Default : No
Forced : No

Text #20
ID : 22
Format : UTF-8
Codec ID : S_TEXT/UTF8
Codec ID/Info : UTF-8 Plain Text
Duration : 1 h 27 min
Bit rate : 15 b/s
Count of elements : 447
Stream size : 9.87 KiB (0%)
Language : Polish
Default : No
Forced : No

Text #21
ID : 23
Format : UTF-8
Codec ID : S_TEXT/UTF8
Codec ID/Info : UTF-8 Plain Text
Duration : 1 h 27 min
Bit rate : 15 b/s
Count of elements : 452
Stream size : 10.2 KiB (0%)
Language : Portuguese
Default : No
Forced : No

Text #22
ID : 24
Format : UTF-8
Codec ID : S_TEXT/UTF8
Codec ID/Info : UTF-8 Plain Text
Duration : 1 h 27 min
Bit rate : 27 b/s
Count of elements : 452
Stream size : 17.5 KiB (0%)
Language : Russian
Default : No
Forced : No

Text #23
ID : 25
Format : UTF-8
Codec ID : S_TEXT/UTF8
Codec ID/Info : UTF-8 Plain Text
Duration : 1 h 27 min
Bit rate : 16 b/s
Count of elements : 447
Stream size : 10.4 KiB (0%)
Language : Swedish
Default : No
Forced : No

Text #24
ID : 26
Format : UTF-8
Codec ID : S_TEXT/UTF8
Codec ID/Info : UTF-8 Plain Text
Duration : 1 h 27 min
Bit rate : 51 b/s
Count of elements : 452
Stream size : 32.9 KiB (0%)
Language : Tamil
Default : No
Forced : No

Text #25
ID : 27
Format : UTF-8
Codec ID : S_TEXT/UTF8
Codec ID/Info : UTF-8 Plain Text
Duration : 1 h 27 min
Bit rate : 43 b/s
Count of elements : 451
Stream size : 27.9 KiB (0%)
Language : Telugu
Default : No
Forced : No

Text #26
ID : 28
Format : UTF-8
Codec ID : S_TEXT/UTF8
Codec ID/Info : UTF-8 Plain Text
Duration : 1 h 27 min
Bit rate : 36 b/s
Count of elements : 452
Stream size : 23.3 KiB (0%)
Language : Thai
Default : No
Forced : No

Text #27
ID : 29
Format : UTF-8
Codec ID : S_TEXT/UTF8
Codec ID/Info : UTF-8 Plain Text
Duration : 1 h 27 min
Bit rate : 16 b/s
Count of elements : 452
Stream size : 10.2 KiB (0%)
Language : Turkish
Default : No
Forced : No

Menu
00:00:00.000 : en:Studio Logo
00:00:05.000 : en:Disclaimer
00:00:15.000 : en:Jesus remembers his mom
00:02:47.000 : en:Title Sequence
00:03:06.000 : en:Miguel coaching soccer team
00:12:31.000 : en:Magdalena's forty-seventh birthday
00:17:11.000 : en:Miguel gets frustration
00:20:29.000 : en:Miguel comes for info to Cortez
00:32:59.000 : en:Miguel talks to Gato
00:39:13.000 : en:Ricardo worries about Miguel
00:49:54.000 : en:Ricardo can feel a peace in his way
00:55:34.000 : en:Jesus takes care of Ricardo
01:01:52.000 : en:Awkward dinner
01:10:48.000 : en:Miguel gets the throne
01:13:48.000 : en:To mourn the death of Ricardo
01:16:01.000 : en:Miguel chooses a sacrifice
01:22:58.000 : en:I'm the high priestess of death
01:26:16.000 : en:Miguel declares the war
01:31:06.000 : en:Execution
01:34:46.000 : en:End Credits





Too Old to Die Young S01E02


Too Old to Die Young S01E02


Too Old to Die Young S01E02


Too Old to Die Young S01E02


Too Old to Die Young S01E02

All episodes