Featured TV Shows


Too Old to Die Young S01E04

Posted By: Tavaz
1080p (FullHD) / WEB-DL IMDb
Too Old to Die Young S01E04

Too Old to Die Young S01E04
WEB-DL | MKV | 1920x1040 | English | H264 @ 8946 kbps | E-AC-3 @ 640 kbps | 1 h 3 min | 4.27 GiB
Subtitles: Swedish, Telugu, Turkish, Hindi, Dutch, Korean, Danish, Indonesian, Norwegian Bokmal, French, Russian, Thai, Tamil, Finnish, Spanish, English, Italian, Portuguese, Chinese, German, Hebrew, Polish, Arabic
Genre: Crime, Drama


A grieving police officer, along with the man who shot his partner, finds himself in an underworld filled with working-class hit men, Yakuza soldiers, cartel assassins sent from Mexico, Russian mafia captains and gangs of teen killers.

79fc82b192024ae0a663ea0d8d0ac98c.mkv (4.3 GB)



General
Unique ID : 265542355276603858143524226109748479057 (0xC7C598EC20DAE14651702C5C4DA70451)
Complete name : ./79fc82b192024ae0a663ea0d8d0ac98c.mkv
Format : Matroska
Format version : Version 4 / Version 2
File size : 4.27 GiB
Duration : 1 h 3 min
Overall bit rate : 9 591 kb/s
Encoded date : UTC 2019-06-14 01:09:20
Writing application : mkvmerge v21.0.0 ('Tardigrades Will Inherit The Earth') 64-bit
Writing library : libebml v1.3.5 + libmatroska v1.4.8

Video
ID : 1
Format : AVC
Format/Info : Advanced Video Codec
Format profile : High@L4
Format settings : CABAC / 4 Ref Frames
Format settings, CABAC : Yes
Format settings, RefFrames : 4 frames
Format settings, GOP : M=4, N=48
Codec ID : V_MPEG4/ISO/AVC
Duration : 1 h 3 min
Bit rate mode : Constant
Bit rate : 8 947 kb/s
Nominal bit rate : 10 000 kb/s
Width : 1 920 pixels
Height : 1 040 pixels
Display aspect ratio : 1.85:1
Frame rate mode : Constant
Frame rate : 24.000 FPS
Color space : YUV
Chroma subsampling : 4:2:0
Bit depth : 8 bits
Scan type : Progressive
Bits/(Pixel*Frame) : 0.187
Stream size : 3.98 GiB (93%)
Default : Yes
Forced : No
Color range : Limited
Color primaries : BT.709
Transfer characteristics : BT.709
Matrix coefficients : BT.709

Audio
ID : 2
Format : E-AC-3
Format/Info : Enhanced Audio Coding 3
Format settings, Endianness : Big
Codec ID : A_EAC3
Duration : 1 h 3 min
Bit rate mode : Constant
Bit rate : 640 kb/s
Channel(s) : 6 channels
Channel positions : Front: L C R, Side: L R, LFE
Sampling rate : 48.0 kHz
Frame rate : 187.500 FPS (256 SPF)
Compression mode : Lossy
Stream size : 292 MiB (7%)
Language : English
Service kind : Complete Main
Default : Yes
Forced : No

Text #1
ID : 3
Format : UTF-8
Codec ID : S_TEXT/UTF8
Codec ID/Info : UTF-8 Plain Text
Duration : 1 h 0 min
Bit rate : 25 b/s
Count of elements : 463
Stream size : 11.4 KiB (0%)
Language : English
Default : No
Forced : No

Text #2
ID : 4
Format : UTF-8
Codec ID : S_TEXT/UTF8
Codec ID/Info : UTF-8 Plain Text
Duration : 1 h 1 min
Bit rate : 27 b/s
Count of elements : 538
Stream size : 12.4 KiB (0%)
Title : SDH
Language : English
Default : No
Forced : No

Text #3
ID : 5
Format : UTF-8
Codec ID : S_TEXT/UTF8
Codec ID/Info : UTF-8 Plain Text
Duration : 1 h 0 min
Bit rate : 42 b/s
Count of elements : 434
Stream size : 18.7 KiB (0%)
Language : Arabic
Default : No
Forced : No

Text #4
ID : 6
Format : UTF-8
Codec ID : S_TEXT/UTF8
Codec ID/Info : UTF-8 Plain Text
Duration : 1 h 0 min
Bit rate : 23 b/s
Count of elements : 430
Stream size : 10.4 KiB (0%)
Title : 中文(简体)
Language : Chinese
Default : No
Forced : No

Text #5
ID : 7
Format : UTF-8
Codec ID : S_TEXT/UTF8
Codec ID/Info : UTF-8 Plain Text
Duration : 1 h 0 min
Bit rate : 21 b/s
Count of elements : 430
Stream size : 9.58 KiB (0%)
Title : 中文(繁體)
Language : Chinese
Default : No
Forced : No

Text #6
ID : 8
Format : UTF-8
Codec ID : S_TEXT/UTF8
Codec ID/Info : UTF-8 Plain Text
Duration : 1 h 0 min
Bit rate : 24 b/s
Count of elements : 429
Stream size : 10.8 KiB (0%)
Language : Danish
Default : No
Forced : No

Text #7
ID : 9
Format : UTF-8
Codec ID : S_TEXT/UTF8
Codec ID/Info : UTF-8 Plain Text
Duration : 1 h 0 min
Bit rate : 25 b/s
Count of elements : 410
Stream size : 11.3 KiB (0%)
Language : German
Default : No
Forced : No

Text #8
ID : 10
Format : UTF-8
Codec ID : S_TEXT/UTF8
Codec ID/Info : UTF-8 Plain Text
Duration : 1 h 0 min
Bit rate : 24 b/s
Count of elements : 432
Stream size : 10.8 KiB (0%)
Title : Latinoamérica
Language : Spanish
Default : No
Forced : No

Text #9
ID : 11
Format : UTF-8
Codec ID : S_TEXT/UTF8
Codec ID/Info : UTF-8 Plain Text
Duration : 1 h 0 min
Bit rate : 24 b/s
Count of elements : 434
Stream size : 11.0 KiB (0%)
Title : España
Language : Spanish
Default : No
Forced : No

Text #10
ID : 12
Format : UTF-8
Codec ID : S_TEXT/UTF8
Codec ID/Info : UTF-8 Plain Text
Duration : 1 h 0 min
Bit rate : 23 b/s
Count of elements : 433
Stream size : 10.4 KiB (0%)
Language : Finnish
Default : No
Forced : No

Text #11
ID : 13
Format : UTF-8
Codec ID : S_TEXT/UTF8
Codec ID/Info : UTF-8 Plain Text
Duration : 1 h 0 min
Bit rate : 24 b/s
Count of elements : 422
Stream size : 10.9 KiB (0%)
Language : French
Default : No
Forced : No

Text #12
ID : 14
Format : UTF-8
Codec ID : S_TEXT/UTF8
Codec ID/Info : UTF-8 Plain Text
Duration : 1 h 0 min
Bit rate : 38 b/s
Count of elements : 430
Stream size : 17.1 KiB (0%)
Language : Hebrew
Default : No
Forced : No

Text #13
ID : 15
Format : UTF-8
Codec ID : S_TEXT/UTF8
Codec ID/Info : UTF-8 Plain Text
Duration : 1 h 0 min
Bit rate : 61 b/s
Count of elements : 434
Stream size : 27.2 KiB (0%)
Language : Hindi
Default : No
Forced : No

Text #14
ID : 16
Format : UTF-8
Codec ID : S_TEXT/UTF8
Codec ID/Info : UTF-8 Plain Text
Duration : 1 h 0 min
Bit rate : 23 b/s
Count of elements : 429
Stream size : 10.6 KiB (0%)
Language : Indonesian
Default : No
Forced : No

Text #15
ID : 17
Format : UTF-8
Codec ID : S_TEXT/UTF8
Codec ID/Info : UTF-8 Plain Text
Duration : 1 h 0 min
Bit rate : 23 b/s
Count of elements : 434
Stream size : 10.5 KiB (0%)
Language : Italian
Default : No
Forced : No

Text #16
ID : 18
Format : UTF-8
Codec ID : S_TEXT/UTF8
Codec ID/Info : UTF-8 Plain Text
Duration : 1 h 0 min
Bit rate : 24 b/s
Count of elements : 433
Stream size : 11.0 KiB (0%)
Language : Korean
Default : No
Forced : No

Text #17
ID : 19
Format : UTF-8
Codec ID : S_TEXT/UTF8
Codec ID/Info : UTF-8 Plain Text
Duration : 1 h 0 min
Bit rate : 23 b/s
Count of elements : 434
Stream size : 10.5 KiB (0%)
Language : Norwegian Bokmal
Default : No
Forced : No

Text #18
ID : 20
Format : UTF-8
Codec ID : S_TEXT/UTF8
Codec ID/Info : UTF-8 Plain Text
Duration : 1 h 0 min
Bit rate : 23 b/s
Count of elements : 429
Stream size : 10.3 KiB (0%)
Language : Dutch
Default : No
Forced : No

Text #19
ID : 21
Format : UTF-8
Codec ID : S_TEXT/UTF8
Codec ID/Info : UTF-8 Plain Text
Duration : 1 h 0 min
Bit rate : 23 b/s
Count of elements : 415
Stream size : 10.5 KiB (0%)
Language : Polish
Default : No
Forced : No

Text #20
ID : 22
Format : UTF-8
Codec ID : S_TEXT/UTF8
Codec ID/Info : UTF-8 Plain Text
Duration : 1 h 0 min
Bit rate : 24 b/s
Count of elements : 433
Stream size : 11.1 KiB (0%)
Language : Portuguese
Default : No
Forced : No

Text #21
ID : 23
Format : UTF-8
Codec ID : S_TEXT/UTF8
Codec ID/Info : UTF-8 Plain Text
Duration : 1 h 0 min
Bit rate : 43 b/s
Count of elements : 433
Stream size : 19.1 KiB (0%)
Language : Russian
Default : No
Forced : No

Text #22
ID : 24
Format : UTF-8
Codec ID : S_TEXT/UTF8
Codec ID/Info : UTF-8 Plain Text
Duration : 1 h 0 min
Bit rate : 24 b/s
Count of elements : 428
Stream size : 10.9 KiB (0%)
Language : Swedish
Default : No
Forced : No

Text #23
ID : 25
Format : UTF-8
Codec ID : S_TEXT/UTF8
Codec ID/Info : UTF-8 Plain Text
Duration : 1 h 0 min
Bit rate : 74 b/s
Count of elements : 434
Stream size : 33.0 KiB (0%)
Language : Tamil
Default : No
Forced : No

Text #24
ID : 26
Format : UTF-8
Codec ID : S_TEXT/UTF8
Codec ID/Info : UTF-8 Plain Text
Duration : 1 h 0 min
Bit rate : 67 b/s
Count of elements : 428
Stream size : 30.1 KiB (0%)
Language : Telugu
Default : No
Forced : No

Text #25
ID : 27
Format : UTF-8
Codec ID : S_TEXT/UTF8
Codec ID/Info : UTF-8 Plain Text
Duration : 1 h 0 min
Bit rate : 57 b/s
Count of elements : 434
Stream size : 25.5 KiB (0%)
Language : Thai
Default : No
Forced : No

Text #26
ID : 28
Format : UTF-8
Codec ID : S_TEXT/UTF8
Codec ID/Info : UTF-8 Plain Text
Duration : 1 h 0 min
Bit rate : 25 b/s
Count of elements : 434
Stream size : 11.2 KiB (0%)
Language : Turkish
Default : No
Forced : No

Menu
00:00:00.000 : en:Studio Logo
00:00:05.000 : en:Disclaimer
00:00:15.000 : en:Martin is with Janey
00:05:09.000 : en:Title Sequence
00:05:27.000 : en:Martin is at Quinn's session
00:12:06.000 : en:Someone has to be there to protect innocence
00:18:40.000 : en:Viggo comes to Diana's session
00:22:24.000 : en:Friday meeting at Martin's office
00:26:20.000 : en:Martin cannot get it
00:29:46.000 : en:Viggo’s sadness
00:32:49.000 : en:Janey calls Martin
00:34:14.000 : en:Theo and Janey are talking at dinning room
00:38:36.000 : en:Celestio brings next target to Martin
00:44:40.000 : en:Martin ask for a reason
00:48:50.000 : en:Martin visits his base
00:53:31.000 : en:Martin want the blood not the money
00:58:59.000 : en:Viggo is hunting
01:01:25.000 : en:End Credits





Too Old to Die Young S01E04


Too Old to Die Young S01E04


Too Old to Die Young S01E04


Too Old to Die Young S01E04


Too Old to Die Young S01E04

All episodes