Featured TV Shows


Too Old to Die Young S01E06

Posted By: Tavaz
1080p (FullHD) / WEB-DL IMDb
Too Old to Die Young S01E06

Too Old to Die Young S01E06
WEB-DL | MKV | 1920x1040 | English | H264 @ 9311 kbps | E-AC-3 @ 640 kbps | 1 h 31 min | 6.36 GiB
Subtitles: Swedish, Telugu, Turkish, Hindi, Dutch, Korean, Danish, Indonesian, Norwegian Bokmal, French, Russian, Thai, Tamil, Finnish, Spanish, English, Italian, Portuguese, Chinese, German, Hebrew, Polish, Arabic
Genre: Crime, Drama


A grieving police officer, along with the man who shot his partner, finds himself in an underworld filled with working-class hit men, Yakuza soldiers, cartel assassins sent from Mexico, Russian mafia captains and gangs of teen killers.

e633705ddefa4152bfeee95cf239173e.mkv (6.4 GB)



General
Unique ID : 20647301332657249337013433838016382580 (0xF88868D1D4A5E3E805DBEC05C33C674)
Complete name : ./e633705ddefa4152bfeee95cf239173e.mkv
Format : Matroska
Format version : Version 4 / Version 2
File size : 6.36 GiB
Duration : 1 h 31 min
Overall bit rate : 9 955 kb/s
Encoded date : UTC 2019-06-14 01:22:47
Writing application : mkvmerge v21.0.0 ('Tardigrades Will Inherit The Earth') 64-bit
Writing library : libebml v1.3.5 + libmatroska v1.4.8

Video
ID : 1
Format : AVC
Format/Info : Advanced Video Codec
Format profile : High@L4
Format settings : CABAC / 4 Ref Frames
Format settings, CABAC : Yes
Format settings, RefFrames : 4 frames
Format settings, GOP : M=4, N=48
Codec ID : V_MPEG4/ISO/AVC
Duration : 1 h 31 min
Bit rate mode : Constant
Bit rate : 9 311 kb/s
Nominal bit rate : 10 000 kb/s
Width : 1 920 pixels
Height : 1 040 pixels
Display aspect ratio : 1.85:1
Frame rate mode : Constant
Frame rate : 24.000 FPS
Color space : YUV
Chroma subsampling : 4:2:0
Bit depth : 8 bits
Scan type : Progressive
Bits/(Pixel*Frame) : 0.194
Stream size : 5.95 GiB (94%)
Default : Yes
Forced : No
Color range : Limited
Color primaries : BT.709
Transfer characteristics : BT.709
Matrix coefficients : BT.709

Audio
ID : 2
Format : E-AC-3
Format/Info : Enhanced Audio Coding 3
Format settings, Endianness : Big
Codec ID : A_EAC3
Duration : 1 h 31 min
Bit rate mode : Constant
Bit rate : 640 kb/s
Channel(s) : 6 channels
Channel positions : Front: L C R, Side: L R, LFE
Sampling rate : 48.0 kHz
Frame rate : 187.500 FPS (256 SPF)
Compression mode : Lossy
Stream size : 419 MiB (6%)
Language : English
Service kind : Complete Main
Default : Yes
Forced : No

Text #1
ID : 3
Format : UTF-8
Codec ID : S_TEXT/UTF8
Codec ID/Info : UTF-8 Plain Text
Duration : 1 h 26 min
Bit rate : 8 b/s
Count of elements : 219
Stream size : 5.19 KiB (0%)
Title : Forced
Language : English
Default : Yes
Forced : Yes

Text #2
ID : 4
Format : UTF-8
Codec ID : S_TEXT/UTF8
Codec ID/Info : UTF-8 Plain Text
Duration : 1 h 27 min
Bit rate : 26 b/s
Count of elements : 653
Stream size : 16.6 KiB (0%)
Language : English
Default : No
Forced : No

Text #3
ID : 5
Format : UTF-8
Codec ID : S_TEXT/UTF8
Codec ID/Info : UTF-8 Plain Text
Duration : 1 h 28 min
Bit rate : 28 b/s
Count of elements : 718
Stream size : 18.7 KiB (0%)
Title : SDH
Language : English
Default : No
Forced : No

Text #4
ID : 6
Format : UTF-8
Codec ID : S_TEXT/UTF8
Codec ID/Info : UTF-8 Plain Text
Duration : 1 h 27 min
Bit rate : 37 b/s
Count of elements : 532
Stream size : 23.9 KiB (0%)
Language : Arabic
Default : No
Forced : No

Text #5
ID : 7
Format : UTF-8
Codec ID : S_TEXT/UTF8
Codec ID/Info : UTF-8 Plain Text
Duration : 1 h 27 min
Bit rate : 21 b/s
Count of elements : 528
Stream size : 14.0 KiB (0%)
Title : 中文(简体)
Language : Chinese
Default : No
Forced : No

Text #6
ID : 8
Format : UTF-8
Codec ID : S_TEXT/UTF8
Codec ID/Info : UTF-8 Plain Text
Duration : 1 h 27 min
Bit rate : 19 b/s
Count of elements : 528
Stream size : 12.6 KiB (0%)
Title : 中文(繁體)
Language : Chinese
Default : No
Forced : No

Text #7
ID : 9
Format : UTF-8
Codec ID : S_TEXT/UTF8
Codec ID/Info : UTF-8 Plain Text
Duration : 1 h 27 min
Bit rate : 21 b/s
Count of elements : 532
Stream size : 14.0 KiB (0%)
Language : Danish
Default : No
Forced : No

Text #8
ID : 10
Format : UTF-8
Codec ID : S_TEXT/UTF8
Codec ID/Info : UTF-8 Plain Text
Duration : 1 h 27 min
Bit rate : 23 b/s
Count of elements : 525
Stream size : 15.0 KiB (0%)
Language : German
Default : No
Forced : No

Text #9
ID : 11
Format : UTF-8
Codec ID : S_TEXT/UTF8
Codec ID/Info : UTF-8 Plain Text
Duration : 1 h 12 min
Bit rate : 16 b/s
Count of elements : 314
Stream size : 8.74 KiB (0%)
Title : Latinoamérica
Language : Spanish
Default : No
Forced : No

Text #10
ID : 12
Format : UTF-8
Codec ID : S_TEXT/UTF8
Codec ID/Info : UTF-8 Plain Text
Duration : 1 h 22 min
Bit rate : 15 b/s
Count of elements : 325
Stream size : 9.19 KiB (0%)
Title : España
Language : Spanish
Default : No
Forced : No

Text #11
ID : 13
Format : UTF-8
Codec ID : S_TEXT/UTF8
Codec ID/Info : UTF-8 Plain Text
Duration : 1 h 27 min
Bit rate : 21 b/s
Count of elements : 531
Stream size : 13.7 KiB (0%)
Language : Finnish
Default : No
Forced : No

Text #12
ID : 14
Format : UTF-8
Codec ID : S_TEXT/UTF8
Codec ID/Info : UTF-8 Plain Text
Duration : 1 h 27 min
Bit rate : 22 b/s
Count of elements : 524
Stream size : 14.3 KiB (0%)
Language : French
Default : No
Forced : No

Text #13
ID : 15
Format : UTF-8
Codec ID : S_TEXT/UTF8
Codec ID/Info : UTF-8 Plain Text
Duration : 1 h 27 min
Bit rate : 34 b/s
Count of elements : 528
Stream size : 22.1 KiB (0%)
Language : Hebrew
Default : No
Forced : No

Text #14
ID : 16
Format : UTF-8
Codec ID : S_TEXT/UTF8
Codec ID/Info : UTF-8 Plain Text
Duration : 1 h 27 min
Bit rate : 56 b/s
Count of elements : 532
Stream size : 35.9 KiB (0%)
Language : Hindi
Default : No
Forced : No

Text #15
ID : 17
Format : UTF-8
Codec ID : S_TEXT/UTF8
Codec ID/Info : UTF-8 Plain Text
Duration : 1 h 27 min
Bit rate : 21 b/s
Count of elements : 530
Stream size : 13.9 KiB (0%)
Language : Indonesian
Default : No
Forced : No

Text #16
ID : 18
Format : UTF-8
Codec ID : S_TEXT/UTF8
Codec ID/Info : UTF-8 Plain Text
Duration : 1 h 27 min
Bit rate : 20 b/s
Count of elements : 532
Stream size : 13.1 KiB (0%)
Language : Italian
Default : No
Forced : No

Text #17
ID : 19
Format : UTF-8
Codec ID : S_TEXT/UTF8
Codec ID/Info : UTF-8 Plain Text
Duration : 1 h 27 min
Bit rate : 21 b/s
Count of elements : 532
Stream size : 13.7 KiB (0%)
Language : Korean
Default : No
Forced : No

Text #18
ID : 20
Format : UTF-8
Codec ID : S_TEXT/UTF8
Codec ID/Info : UTF-8 Plain Text
Duration : 1 h 27 min
Bit rate : 21 b/s
Count of elements : 532
Stream size : 13.6 KiB (0%)
Language : Norwegian Bokmal
Default : No
Forced : No

Text #19
ID : 21
Format : UTF-8
Codec ID : S_TEXT/UTF8
Codec ID/Info : UTF-8 Plain Text
Duration : 1 h 27 min
Bit rate : 21 b/s
Count of elements : 527
Stream size : 13.5 KiB (0%)
Language : Dutch
Default : No
Forced : No

Text #20
ID : 22
Format : UTF-8
Codec ID : S_TEXT/UTF8
Codec ID/Info : UTF-8 Plain Text
Duration : 1 h 27 min
Bit rate : 21 b/s
Count of elements : 528
Stream size : 13.8 KiB (0%)
Language : Polish
Default : No
Forced : No

Text #21
ID : 23
Format : UTF-8
Codec ID : S_TEXT/UTF8
Codec ID/Info : UTF-8 Plain Text
Duration : 1 h 27 min
Bit rate : 22 b/s
Count of elements : 531
Stream size : 14.4 KiB (0%)
Language : Portuguese
Default : No
Forced : No

Text #22
ID : 24
Format : UTF-8
Codec ID : S_TEXT/UTF8
Codec ID/Info : UTF-8 Plain Text
Duration : 1 h 27 min
Bit rate : 38 b/s
Count of elements : 532
Stream size : 24.9 KiB (0%)
Language : Russian
Default : No
Forced : No

Text #23
ID : 25
Format : UTF-8
Codec ID : S_TEXT/UTF8
Codec ID/Info : UTF-8 Plain Text
Duration : 1 h 27 min
Bit rate : 22 b/s
Count of elements : 527
Stream size : 14.2 KiB (0%)
Language : Swedish
Default : No
Forced : No

Text #24
ID : 26
Format : UTF-8
Codec ID : S_TEXT/UTF8
Codec ID/Info : UTF-8 Plain Text
Duration : 1 h 27 min
Bit rate : 64 b/s
Count of elements : 532
Stream size : 41.4 KiB (0%)
Language : Tamil
Default : No
Forced : No

Text #25
ID : 27
Format : UTF-8
Codec ID : S_TEXT/UTF8
Codec ID/Info : UTF-8 Plain Text
Duration : 1 h 27 min
Bit rate : 62 b/s
Count of elements : 531
Stream size : 40.0 KiB (0%)
Language : Telugu
Default : No
Forced : No

Text #26
ID : 28
Format : UTF-8
Codec ID : S_TEXT/UTF8
Codec ID/Info : UTF-8 Plain Text
Duration : 1 h 27 min
Bit rate : 51 b/s
Count of elements : 532
Stream size : 33.2 KiB (0%)
Language : Thai
Default : No
Forced : No

Text #27
ID : 29
Format : UTF-8
Codec ID : S_TEXT/UTF8
Codec ID/Info : UTF-8 Plain Text
Duration : 1 h 27 min
Bit rate : 22 b/s
Count of elements : 532
Stream size : 14.2 KiB (0%)
Language : Turkish
Default : No
Forced : No

Menu
00:00:00.000 : en:Studio Logo
00:00:05.000 : en:Disclaimer
00:00:15.000 : en:Jesus and Yartiza are in red dress
00:04:12.000 : en:Alfonso visits Devante
00:10:01.000 : en:Devante outsources the request
00:15:00.000 : en:Gameboy takeovers the request
00:19:28.000 : en:Damian is taking a rhythm
00:22:12.000 : en:Title Sequence
00:22:42.000 : en:Mrs. Watson comes into house
00:29:24.000 : en:Jesus looks for Yaritza
00:35:48.000 : en:Jesus and Yartiza are getting guns
00:39:53.000 : en:Jesus encounters Dante at super market
00:42:09.000 : en:Jesus talks about Magdalena
00:51:01.000 : en:Alfonso comes to Jesus's house
01:03:00.000 : en:Yaritza gest ready
01:07:15.000 : en:Yaritza meets Carrie
01:19:15.000 : en:Yartiza comes back to home
01:29:06.000 : en:End Credits





Too Old to Die Young S01E06


Too Old to Die Young S01E06


Too Old to Die Young S01E06


Too Old to Die Young S01E06


Too Old to Die Young S01E06

All episodes