Featured TV Shows


Trolls: The Beat Goes On! S02E07

Posted By: Tavaz
720p (HD) / WEBRip IMDb
Trolls: The Beat Goes On! S02E07

Trolls: The Beat Goes On! S02E07
WEBRip | MKV | 1280x720 | English | H264 @ 2490 kbps | AC-3 @ 384 kbps | 23 min 35 s | 478 MiB
Subtitles: Swedish, Danish, English
Genre: Animation, Comedy

Queen Poppy tries to keep Troll Village's peace with the Bergens by inviting them to parties, playing their sports and preventing crime.

Trolls.The.Beat.Goes.On.S02E07E08.Remote.Out.of.Control.-.Critter.Comfort.720p.NF.WEBRip.DD5.1.x264-LAZY.mkv (477.9 MB)



General
Unique ID : 337164365067316874385886026148876701150 (0xFDA77EA3C3ABD1768BC248880924CDDE)
Complete name : ./Trolls.The.Beat.Goes.On.S02E07E08.Remote.Out.of.Control.-.Critter.Comfort.720p.NF.WEBRip.DD5.1.x264-LAZY.mkv
Format : Matroska
Format version : Version 4 / Version 2
File size : 478 MiB
Duration : 23 min 35 s
Overall bit rate mode : Variable
Overall bit rate : 2 832 kb/s
Encoded date : UTC 2018-07-06 12:31:18 / UTC 2018-02-16 04:52:24
Writing application : mkvmerge v24.0.0 ('Beyond The Pale') 64-bit
Writing library : libebml v1.3.6 + libmatroska v1.4.9 / Lavf58.0.0

Video
ID : 1
Format : AVC
Format/Info : Advanced Video Codec
Format profile : Main@L3.1
Format settings : CABAC / 3 Ref Frames
Format settings, CABAC : Yes
Format settings, RefFrames : 3 frames
Codec ID : V_MPEG4/ISO/AVC
Duration : 23 min 35 s
Bit rate mode : Variable
Bit rate : 2 490 kb/s
Maximum bit rate : 3 735 kb/s
Width : 1 280 pixels
Height : 720 pixels
Display aspect ratio : 16:9
Frame rate mode : Constant
Frame rate : 23.976 (24000/1001) FPS
Color space : YUV
Chroma subsampling : 4:2:0
Bit depth : 8 bits
Scan type : Progressive
Bits/(Pixel*Frame) : 0.113
Stream size : 404 MiB (84%)
Writing library : x264 core 148 r2715 7e75228
Encoding settings : cabac=1 / ref=3 / deblock=1:0:0 / analyse=0x1:0x111 / me=umh / subme=10 / psy=1 / psy_rd=1.00:0.00 / mixed_ref=1 / me_range=24 / chroma_me=1 / trellis=2 / 8x8dct=0 / cqm=0 / deadzone=21,11 / fast_pskip=1 / chroma_qp_offset=-2 / threads=8 / lookahead_threads=1 / sliced_threads=0 / nr=0 / decimate=1 / interlaced=0 / bluray_compat=0 / stitchable=1 / constrained_intra=0 / bframes=2 / b_pyramid=0 / b_adapt=2 / b_bias=0 / direct=3 / weightb=1 / open_gop=0 / weightp=2 / keyint=48 / keyint_min=25 / scenecut=0 / intra_refresh=0 / rc_lookahead=48 / rc=2pass / mbtree=1 / bitrate=2490 / ratetol=1.0 / qcomp=0.50 / qpmin=6 / qpmax=51 / qpstep=4 / cplxblur=20.0 / qblur=0.5 / vbv_maxrate=3735 / vbv_bufsize=4980 / nal_hrd=vbr / filler=0 / ip_ratio=1.40 / aq=1:1.00
Language : English
Default : Yes
Forced : No
Statistics Tags Issue : mkvmerge v24.0.0 ('Beyond The Pale') 64-bit 2018-07-06 12:31:18 / mkvmerge v24.0.0 ('Beyond The Pale') 64-bit 2018-07-06 12:31:18 / UTC 2018-02-16 04:52:24
FromStats_BitRate : 2445498
FromStats_Duration : 00:23:35.748000000
FromStats_FrameCount : 33944
FromStats_StreamSize : 432776183

Audio
ID : 2
Format : AC-3
Format/Info : Audio Coding 3
Format settings, Endianness : Big
Codec ID : A_AC3
Duration : 23 min 35 s
Bit rate mode : Constant
Bit rate : 384 kb/s
Channel(s) : 6 channels
Channel positions : Front: L C R, Side: L R, LFE
Sampling rate : 48.0 kHz
Frame rate : 31.250 FPS (1536 SPF)
Bit depth : 16 bits
Compression mode : Lossy
Stream size : 64.8 MiB (14%)
Language : English
Service kind : Complete Main
Default : Yes
Forced : No
Encoded date : UTC 2018-02-16 04:52:24
Statistics Tags Issue : mkvmerge v24.0.0 ('Beyond The Pale') 64-bit 2018-07-06 12:31:18 / mkvmerge v24.0.0 ('Beyond The Pale') 64-bit 2018-07-06 12:31:18 / UTC 2018-02-16 04:52:24
FromStats_BitRate : 384000
FromStats_Duration : 00:23:35.840000000
FromStats_FrameCount : 44245
FromStats_StreamSize : 67960320

Text #1
ID : 3
Format : UTF-8
Codec ID : S_TEXT/UTF8
Codec ID/Info : UTF-8 Plain Text
Title : English
Language : English
Default : No
Forced : No
Statistics Tags Issue : mkvmerge v24.0.0 ('Beyond The Pale') 64-bit 2018-07-06 12:31:18 / mkvmerge v24.0.0 ('Beyond The Pale') 64-bit 2018-07-06 12:31:18 / UTC 2018-02-16 04:52:24
FromStats_BitRate : 117
FromStats_Duration : 00:22:54.999000000
FromStats_FrameCount : 642
FromStats_StreamSize : 20129

Text #2
ID : 4
Format : UTF-8
Codec ID : S_TEXT/UTF8
Codec ID/Info : UTF-8 Plain Text
Title : Danish
Language : Danish
Default : No
Forced : No
Statistics Tags Issue : mkvmerge v24.0.0 ('Beyond The Pale') 64-bit 2018-07-06 12:31:18 / mkvmerge v24.0.0 ('Beyond The Pale') 64-bit 2018-07-06 12:31:18 / UTC 2018-02-16 04:52:24
FromStats_BitRate : 68
FromStats_Duration : 00:23:05.884000000
FromStats_FrameCount : 446
FromStats_StreamSize : 11862

Text #3
ID : 5
Format : UTF-8
Codec ID : S_TEXT/UTF8
Codec ID/Info : UTF-8 Plain Text
Title : Swedish
Language : Swedish
Default : No
Forced : No
Statistics Tags Issue : mkvmerge v24.0.0 ('Beyond The Pale') 64-bit 2018-07-06 12:31:18 / mkvmerge v24.0.0 ('Beyond The Pale') 64-bit 2018-07-06 12:31:18 / UTC 2018-02-16 04:52:24
FromStats_BitRate : 76
FromStats_Duration : 00:23:05.884000000
FromStats_FrameCount : 443
FromStats_StreamSize : 13273





Trolls: The Beat Goes On! S02E07


Trolls: The Beat Goes On! S02E07


Trolls: The Beat Goes On! S02E07


Trolls: The Beat Goes On! S02E07


Trolls: The Beat Goes On! S02E07

All episodes