Featured TV Shows


Trust S01E09

Posted By: Tavaz
720p (HD) / HDTV IMDb
Trust S01E09

Trust S01E09
HDTV | MKV | 1280x640 | French | H264 @ 2406 kbps | E-AC-3 @ 96 kbps | 48 min 22 s | 867 MiB
Genre: Crime, Documentaire, Drame

Trois générations de la famille de J. Paul Getty s'affrontent en 1973 alors que le petit fils de ce magnat du pétrole est kidnappé en Italie.

trust.s01e09.french.720p.hdtv.x264-hybris-sample.mkv (20.1 MB)
trust.s01e09.french.720p.hdtv.x264-hybris.mkv (866.6 MB)



General
Unique ID : 94972237675959489131260155629790661733 (0x4772FCD6248BE757F874D18ABAC98C65)
Complete name : ./trust.s01e09.french.720p.hdtv.x264-hybris.mkv
Format : Matroska
Format version : Version 4 / Version 2
File size : 867 MiB
Duration : 48 min 22 s
Overall bit rate : 2 505 kb/s
Encoded date : UTC 2018-05-22 17:24:59
Writing application : mkvmerge v23.0.0 ('The Bride Said No') 64-bit
Writing library : libebml v1.3.6 + libmatroska v1.4.9

Video
ID : 1
Format : AVC
Format/Info : Advanced Video Codec
Format profile : High@L4.1
Format settings : CABAC / 5 Ref Frames
Format settings, CABAC : Yes
Format settings, RefFrames : 5 frames
Codec ID : V_MPEG4/ISO/AVC
Duration : 48 min 22 s
Bit rate : 2 407 kb/s
Width : 1 280 pixels
Height : 640 pixels
Display aspect ratio : 2.000
Frame rate mode : Constant
Frame rate : 25.000 FPS
Color space : YUV
Chroma subsampling : 4:2:0
Bit depth : 8 bits
Scan type : Progressive
Bits/(Pixel*Frame) : 0.118
Stream size : 833 MiB (96%)
Writing library : x264 core 155 r2901 7d0ff22
Encoding settings : opencl=1 / cabac=1 / ref=5 / deblock=1:0:0 / analyse=0x3:0x133 / me=umh / subme=8 / psy=1 / psy_rd=1.00:0.00 / mixed_ref=1 / me_range=16 / chroma_me=1 / trellis=2 / 8x8dct=1 / cqm=0 / deadzone=21,11 / fast_pskip=0 / chroma_qp_offset=-2 / threads=12 / lookahead_threads=2 / sliced_threads=0 / nr=0 / decimate=1 / interlaced=0 / bluray_compat=0 / constrained_intra=0 / bframes=3 / b_pyramid=2 / b_adapt=1 / b_bias=0 / direct=3 / weightb=1 / open_gop=0 / weightp=2 / keyint=250 / keyint_min=25 / scenecut=40 / intra_refresh=0 / rc_lookahead=50 / rc=crf / mbtree=1 / crf=18.0 / qcomp=0.60 / qpmin=0 / qpmax=69 / qpstep=4 / ip_ratio=1.40 / aq=1:1.00
Language : French
Default : Yes
Forced : No
Color range : Limited
Matrix coefficients : BT.709

Audio
ID : 2
Format : E-AC-3
Format/Info : Enhanced Audio Coding 3
Format settings, Endianness : Big
Codec ID : A_EAC3
Duration : 48 min 22 s
Bit rate mode : Constant
Bit rate : 96.0 kb/s
Channel(s) : 2 channels
Channel positions : Front: L R
Sampling rate : 48.0 kHz
Frame rate : 187.500 FPS (256 SPF)
Compression mode : Lossy
Stream size : 33.2 MiB (4%)
Language : French
Service kind : Complete Main
Default : Yes
Forced : No





Trust S01E09


Trust S01E09


Trust S01E09


Trust S01E09


Trust S01E09

All episodes