Featured TV Shows


Trust S01E09

Posted By: Tavaz
SD / HDTV IMDb
Trust S01E09

Trust S01E09
HDTV | MKV | 720x360 | English | H264 @ 537 kbps | AAC @ 127 kbps | 48 min 29 s | 231 MiB
Genre: Crime, Documentaire, Drame

Trois générations de la famille de J. Paul Getty s'affrontent en 1973 alors que le petit fils de ce magnat du pétrole est kidnappé en Italie.

trust.s01e09.french.hdtv.x264-amb3r-sample.mkv (4.7 MB)
trust.s01e09.french.hdtv.x264-amb3r.mkv (231.3 MB)



General
Unique ID : 178239018036174482743289122785816415260 (0x86179611D1CCF4DC8C21419EDB8B0C1C)
Complete name : ./trust.s01e09.french.hdtv.x264-amb3r.mkv
Format : Matroska
Format version : Version 4 / Version 2
File size : 231 MiB
Duration : 48 min 29 s
Overall bit rate : 667 kb/s
Encoded date : UTC 2018-05-22 00:54:56
Writing application : mkvmerge v9.8.0 ('Kuglblids') 64bit
Writing library : libebml v1.3.4 + libmatroska v1.4.5

Video
ID : 1
Format : AVC
Format/Info : Advanced Video Codec
Format profile : High@L3.1
Format settings : CABAC / 5 Ref Frames
Format settings, CABAC : Yes
Format settings, RefFrames : 5 frames
Codec ID : V_MPEG4/ISO/AVC
Duration : 48 min 29 s
Bit rate : 537 kb/s
Width : 720 pixels
Height : 360 pixels
Display aspect ratio : 2.000
Frame rate mode : Constant
Frame rate : 25.000 FPS
Color space : YUV
Chroma subsampling : 4:2:0
Bit depth : 8 bits
Scan type : Progressive
Bits/(Pixel*Frame) : 0.083
Stream size : 186 MiB (81%)
Writing library : x264 core 155 r2901 7d0ff22
Encoding settings : cabac=1 / ref=5 / deblock=1:-3:-3 / analyse=0x3:0x113 / me=hex / subme=8 / psy=1 / psy_rd=1.00:0.00 / mixed_ref=1 / me_range=16 / chroma_me=1 / trellis=2 / 8x8dct=1 / cqm=0 / deadzone=21,11 / fast_pskip=0 / chroma_qp_offset=-2 / threads=11 / lookahead_threads=1 / sliced_threads=0 / nr=0 / decimate=1 / interlaced=0 / bluray_compat=0 / constrained_intra=0 / bframes=3 / b_pyramid=2 / b_adapt=1 / b_bias=0 / direct=3 / weightb=1 / open_gop=0 / weightp=2 / keyint=250 / keyint_min=25 / scenecut=40 / intra_refresh=0 / rc_lookahead=50 / rc=crf / mbtree=1 / crf=19.0 / qcomp=0.60 / qpmin=0 / qpmax=69 / qpstep=4 / ip_ratio=1.40 / aq=1:1.00
Default : Yes
Forced : No
Color range : Limited
Color primaries : BT.709
Transfer characteristics : BT.709
Matrix coefficients : BT.709

Audio
ID : 2
Format : AAC
Format/Info : Advanced Audio Codec
Format profile : LC
Codec ID : A_AAC-2
Duration : 48 min 29 s
Bit rate : 128 kb/s
Channel(s) : 2 channels
Channel positions : Front: L R
Sampling rate : 48.0 kHz
Frame rate : 46.875 FPS (1024 SPF)
Compression mode : Lossy
Stream size : 44.3 MiB (19%)
Default : Yes
Forced : No





Trust S01E09


Trust S01E09


Trust S01E09


Trust S01E09


Trust S01E09

All episodes