Featured TV Shows


Twin Peaks S03E12

Posted By: Tavaz
SD / HDTV IMDb
Twin Peaks S03E12

Twin Peaks S03E12
HDTV | AVI | 640x360 | MP4V-ES @ 693 kbps | MPEG Audio @ 128 kbps | 54 min 46 s | 325 MiB
Genre: Drama, Mystery, Thriller

The body of Laura Palmer is washed up on a beach near the small Washington state town of Twin Peaks. FBI Special Agent Dale Cooper is called in to investigate her strange demise only to uncover a web of mystery that ultimately leads him deep into the heart of the surrounding woodland and his very own soul.

de7eadba571c4566951c32418ec63365.avi (325.5 MB)



General
Complete name : ./de7eadba571c4566951c32418ec63365.avi
Format : AVI
Format/Info : Audio Video Interleave
File size : 325 MiB
Duration : 54 min 46 s
Overall bit rate : 831 kb/s
Writing application : VirtualDubMod 1.5.10.2 (build 2542/release)
Writing library : VirtualDubMod build 2542/release

Video
ID : 0
Format : MPEG-4 Visual
Format profile : Simple@L3
Format settings, BVOP : No
Format settings, QPel : No
Format settings, GMC : No warppoints
Format settings, Matrix : Default (H.263)
Codec ID : XVID
Codec ID/Hint : XviD
Duration : 54 min 46 s
Bit rate : 694 kb/s
Width : 640 pixels
Height : 360 pixels
Display aspect ratio : 16:9
Frame rate : 23.976 (24000/1001) FPS
Color space : YUV
Chroma subsampling : 4:2:0
Bit depth : 8 bits
Scan type : Progressive
Compression mode : Lossy
Bits/(Pixel*Frame) : 0.126
Stream size : 272 MiB (83%)
Writing library : XviD 64

Audio
ID : 1
Format : MPEG Audio
Format version : Version 1
Format profile : Layer 3
Format settings : Joint stereo / MS Stereo
Mode : Joint stereo
Mode extension : MS Stereo
Codec ID : 55
Codec ID/Hint : MP3
Duration : 54 min 46 s
Bit rate mode : Constant
Bit rate : 128 kb/s
Channel(s) : 2 channels
Sampling rate : 48.0 kHz
Compression mode : Lossy
Stream size : 50.1 MiB (15%)
Alignment : Aligned on interleaves
Interleave, duration : 42 ms (1.00 video frame)
Interleave, preload duration : 504 ms





Twin Peaks S03E12


Twin Peaks S03E12


Twin Peaks S03E12


Twin Peaks S03E12


Twin Peaks S03E12

All episodes