Featured TV Shows


Vikings S05E09

Posted By: Tavaz
720p (HD) / WEB-DL IMDb
Vikings S05E09

Vikings S05E09
WEB-DL | MKV | 1280x720 | French | H264 @ 1905 kbps | AC-3 @ 384 kbps | 46 min 0 s | 754 MiB
Genre: Drame

Les exploits d'un groupe de vikings de la fin du 8ème siècle jusqu'au milieu du 11ème, mené par Ragnar Lodbrok, l'un des plus populaires héros viking de tous les temps, qui a régné quelques temps sur le Danemark et la Suède…

Vikings.S05E09.FRENCH.720p.AMZN.WEB-DL.DD5.1.H264-FRATERNiTY.mkv (753.8 MB)



General
Unique ID : 168060856167758893776613688312897984504 (0x7E6F57F20F3914B8DF74ED85EE57D7F8)
Complete name : ./Vikings.S05E09.FRENCH.720p.AMZN.WEB-DL.DD5.1.H264-FRATERNiTY.mkv
Format : Matroska
Format version : Version 4 / Version 2
File size : 754 MiB
Duration : 46 min 0 s
Overall bit rate mode : Variable
Overall bit rate : 2 291 kb/s
Movie name : Vikings.S05E09.FRENCH.720p.AMZN.WEB-DL.DD5.1.H264-FRATERNiTY
Encoded date : UTC 2018-01-19 07:20:41
Writing application : mkvmerge v20.0.0 ('I Am The Sun') 64-bit
Writing library : libebml v1.3.5 + libmatroska v1.4.8

Video
ID : 1
Format : AVC
Format/Info : Advanced Video Codec
Format profile : High@L3.1
Format settings : CABAC / 5 Ref Frames
Format settings, CABAC : Yes
Format settings, RefFrames : 5 frames
Codec ID : V_MPEG4/ISO/AVC
Duration : 46 min 0 s
Bit rate mode : Variable
Bit rate : 1 905 kb/s
Maximum bit rate : 4 500 kb/s
Width : 1 280 pixels
Height : 720 pixels
Display aspect ratio : 16:9
Frame rate mode : Constant
Frame rate : 23.976 (24000/1001) FPS
Color space : YUV
Chroma subsampling : 4:2:0
Bit depth : 8 bits
Scan type : Progressive
Bits/(Pixel*Frame) : 0.086
Stream size : 627 MiB (83%)
Title : Vikings.S05E09.FRENCH.720p.AMZN.WEB-DL.DD5.1.H264-FRATERNiTY
Language : French
Default : Yes
Forced : No
Color range : Limited
Color primaries : BT.709
Transfer characteristics : BT.709
Matrix coefficients : BT.709

Audio
ID : 2
Format : AC-3
Format/Info : Audio Coding 3
Format settings, Endianness : Big
Codec ID : A_AC3
Duration : 46 min 0 s
Bit rate mode : Constant
Bit rate : 384 kb/s
Channel(s) : 6 channels
Channel positions : Front: L C R, Side: L R, LFE
Sampling rate : 48.0 kHz
Frame rate : 31.250 FPS (1536 SPF)
Bit depth : 16 bits
Compression mode : Lossy
Stream size : 126 MiB (17%)
Title : Vikings.S05E09.FRENCH.720p.AMZN.WEB-DL.DD5.1.H264-FRATERNiTY
Language : French
Service kind : Complete Main
Default : Yes
Forced : No

Menu
00:00:00.000 : en:Vorspann
00:00:50.000 : en:Szene 2
00:05:07.000 : en:Szene 3
00:06:27.000 : en:Szene 4
00:08:01.000 : en:Szene 5
00:09:32.000 : en:Szene 6
00:10:39.000 : en:Szene 7
00:12:40.000 : en:Zwischensequenz
00:12:42.000 : en:Szene 9
00:14:43.000 : en:Szene 10
00:17:35.000 : en:Szene 11
00:20:45.000 : en:Szene 12
00:22:54.000 : en:Szene 13
00:25:25.000 : en:Szene 14
00:31:17.000 : en:Szene 15
00:32:44.000 : en:Szene 16
00:40:29.000 : en:Zwischensequenz
00:40:31.000 : en:Szene 18
00:45:00.000 : en:Abspann





Vikings S05E09


Vikings S05E09


Vikings S05E09


Vikings S05E09


Vikings S05E09

All episodes