Vikings S05E12

Posted By: Tavaz
720p (HD) / WEBRip IMDb
Vikings S05E12

Vikings S05E12
WEBRip | MKV | 1280x720 | German | H264 @ 1503 kbps | E-AC-3 @ 640 kbps | 45 min 20 s | 696 MiB
Subtitles: German, English
Genre: Drama

Inspiriert von den überlieferten Sagen des legendären Wikingerkönigs Ragnar Lothbrok entführt die gefeierte Hitserie in den eisigen Norden des europäischen Kontinents im 8. Jahrhundert: Krieger Ragnar glaubt, dass jenseits des wilden Ozeans im unerforschten Westen ein neues Land mit reichen Schätzen auf die Wikingerhorden wartet. Für seine Überzeugungen setzt er alles auf eine Karte, lässt ein neues Schiff bauen und macht sich in den packenden neun Episoden der ersten Staffel auf, um Geschichte zu schreiben.

Vikings.S05E12. German Murder Most Foul .mkv (695.7 MB)



General
Unique ID : 262766019181979930178643399149795720286 (0xC5AEE4FC0D2EC754F8BB5858CC24BC5E)
Complete name : ./Vikings.S05E12. German Murder Most Foul .mkv
Format : Matroska
Format version : Version 4 / Version 2
File size : 696 MiB
Duration : 45 min 20 s
Overall bit rate : 2 145 kb/s
Encoded date : UTC 2018-12-06 09:19:33
Writing application : mkvmerge v28.2.0 ('The Awakening') 64-bit
Writing library : libebml v1.3.6 + libmatroska v1.4.9

Video
ID : 1
Format : AVC
Format/Info : Advanced Video Codec
Format profile : High@L3.1
Format settings : CABAC / 5 Ref Frames
Format settings, CABAC : Yes
Format settings, RefFrames : 5 frames
Codec ID : V_MPEG4/ISO/AVC
Duration : 45 min 20 s
Bit rate : 1 503 kb/s
Width : 1 280 pixels
Height : 720 pixels
Display aspect ratio : 16:9
Frame rate mode : Constant
Frame rate : 23.976 (24000/1001) FPS
Color space : YUV
Chroma subsampling : 4:2:0
Bit depth : 8 bits
Scan type : Progressive
Bits/(Pixel*Frame) : 0.068
Stream size : 487 MiB (70%)
Language : German
Default : Yes
Forced : No
Color range : Limited
Color primaries : BT.709
Transfer characteristics : BT.709
Matrix coefficients : BT.709

Audio
ID : 2
Format : E-AC-3
Format/Info : Enhanced Audio Coding 3
Format settings, Endianness : Big
Codec ID : A_EAC3
Duration : 45 min 20 s
Bit rate mode : Constant
Bit rate : 640 kb/s
Channel(s) : 6 channels
Channel positions : Front: L C R, Side: L R, LFE
Sampling rate : 48.0 kHz
Frame rate : 187.500 FPS (256 SPF)
Compression mode : Lossy
Stream size : 208 MiB (30%)
Language : German
Service kind : Complete Main
Default : Yes
Forced : No

Text #1
ID : 3
Format : UTF-8
Codec ID : S_TEXT/UTF8
Codec ID/Info : UTF-8 Plain Text
Duration : 43 min 57 s
Bit rate : 54 b/s
Count of elements : 541
Stream size : 17.5 KiB (0%)
Title : Deutsch
Language : German
Default : No
Forced : No

Text #2
ID : 4
Format : UTF-8
Codec ID : S_TEXT/UTF8
Codec ID/Info : UTF-8 Plain Text
Duration : 44 min 21 s
Bit rate : 51 b/s
Count of elements : 644
Stream size : 16.8 KiB (0%)
Title : English
Language : English
Default : No
Forced : No





Vikings S05E12


Vikings S05E12


Vikings S05E12


Vikings S05E12


Vikings S05E12

All episodes