Featured TV Shows


Will & Grace S11E03

Posted By: Tavaz
Will & Grace S11E03

Will & Grace S11E03
MKV | 1920x1080 | H265 @ 784 kbps | E-AC-3 @ 256 kbps | 21 min 38 s | 164 MiB
Subtitles: English
Genre: Comedy


Will Truman and Grace Adler are best friends living in New York, and when Grace's engagement falls apart, she moves in with Will. Together, along with their friends, they go through the trials of dating, sex, relationships and their careers, butting heads at times but ultimately supporting one another while exchanging plenty of witty banter along the way.

ae1e61caa8c9456eaf6b89fc5dc46bd8.mkv (164.3 MB)



General
Unique ID : 242941437804076879332580055865023377988 (0xB6C4D1A8AB49966E44FF18B691A9B244)
Complete name : ./ae1e61caa8c9456eaf6b89fc5dc46bd8.mkv
Format : Matroska
Format version : Version 4 / Version 2
File size : 164 MiB
Duration : 21 min 38 s
Overall bit rate : 1 061 kb/s
Writing application : Lavf58.30.100
Writing library : Lavf58.30.100
ErrorDetectionType : Per level 1

Video
ID : 1
Format : HEVC
Format/Info : High Efficiency Video Coding
Format profile : Main 10@L4@Main
Codec ID : V_MPEGH/ISO/HEVC
Duration : 21 min 38 s
Bit rate : 784 kb/s
Width : 1 920 pixels
Height : 1 080 pixels
Display aspect ratio : 16:9
Frame rate mode : Constant
Frame rate : 23.976 (24000/1001) FPS
Color space : YUV
Chroma subsampling : 4:2:0
Bit depth : 10 bits
Bits/(Pixel*Frame) : 0.016
Stream size : 121 MiB (74%)
Writing library : x265 3.1+7-147fb92c5ed5:[Windows][GCC 9.1.1][64 bit] 10bit
Encoding settings : cpuid=1111039 / frame-threads=4 / numa-pools=16 / wpp / no-pmode / no-pme / no-psnr / no-ssim / log-level=2 / input-csp=1 / input-res=1920x1080 / interlace=0 / total-frames=0 / level-idc=0 / high-tier=1 / uhd-bd=0 / ref=1 / no-allow-non-conformance / no-repeat-headers / annexb / no-aud / no-hrd / info / hash=0 / no-temporal-layers / open-gop / min-keyint=23 / keyint=250 / gop-lookahead=0 / bframes=3 / b-adapt=0 / b-pyramid / bframe-bias=0 / rc-lookahead=5 / lookahead-slices=6 / scenecut=0 / radl=0 / no-splice / no-intra-refresh / ctu=32 / min-cu-size=16 / no-rect / no-amp / max-tu-size=32 / tu-inter-depth=1 / tu-intra-depth=1 / limit-tu=0 / rdoq-level=0 / dynamic-rd=0.00 / no-ssim-rd / no-signhide / no-tskip / nr-intra=0 / nr-inter=0 / no-constrained-intra / strong-intra-smoothing / max-merge=2 / limit-refs=0 / no-limit-modes / me=0 / subme=0 / merange=57 / temporal-mvp / no-hme / no-weightp / no-weightb / no-analyze-src-pics / deblock=0:0 / no-sao / no-sao-non-deblock / rd=2 / early-skip / rskip / fast-intra / no-tskip-fast / no-cu-lossless / no-b-intra / no-splitrd-skip / rdpenalty=0 / psy-rd=2.00 / psy-rdoq=0.00 / no-rd-refine / no-lossless / cbqpoffs=0 / crqpoffs=0 / rc=crf / crf=23.0 / qcomp=0.60 / qpstep=4 / stats-write=0 / stats-read=0 / ipratio=1.40 / pbratio=1.30 / aq-mode=1 / aq-strength=0.00 / cutree / zone-count=0 / no-strict-cbr / qg-size=32 / no-rc-grain / qpmax=69 / qpmin=0 / no-const-vbv / sar=1 / overscan=0 / videoformat=5 / range=0 / colorprim=2 / transfer=2 / colormatrix=2 / chromaloc=0 / display-window=0cll=0,0 / min-luma=0 / max-luma=1023 / log2-max-poc-lsb=8 / vui-timing-info / vui-hrd-info / slices=1 / no-opt-qp-pps / no-opt-ref-list-length-pps / no-multi-pass-opt-rps / scenecut-bias=0.05 / no-opt-cu-delta-qp / no-aq-motion / no-hdr / no-hdr-opt / no-dhdr10-opt / no-idr-recovery-sei / analysis-reuse-level=5 / scale-factor=0 / refine-intra=0 / refine-inter=0 / refine-mv=0 / refine-ctu-distortion=0 / no-limit-sao / ctu-info=0 / no-lowpass-dct / refine-analysis-type=2 / copy-pic=1 / max-ausize-factor=1.0 / no-dynamic-refine / no-single-sei / no-hevc-aq / no-svt / no-field / qp-adaptation-range=1.00
Default : Yes
Forced : No
Color range : Limited
Statistics Tags Issue : mkvmerge v38.0.0 ('The Silent Type') 64-bit 2019-11-08 10:00:35 / Lavf58.30.100
FromStats_BitRate : 5498659
FromStats_Duration : 00:21:38.297000000
FromStats_FrameCount : 31128
FromStats_StreamSize : 892361634

Audio
ID : 2
Format : E-AC-3
Format/Info : Enhanced Audio Coding 3
Format settings, Endianness : Big
Codec ID : A_EAC3
Duration : 21 min 38 s
Bit rate mode : Constant
Bit rate : 256 kb/s
Channel(s) : 6 channels
Channel positions : Front: L C R, Side: L R, LFE
Sampling rate : 48.0 kHz
Frame rate : 187.500 FPS (256 SPF)
Bit depth : 32 bits
Compression mode : Lossy
Stream size : 39.6 MiB (24%)
Service kind : Complete Main
Default : Yes
Forced : No
Statistics Tags Issue : mkvmerge v38.0.0 ('The Silent Type') 64-bit 2019-11-08 10:00:35 / Lavf58.30.100
FromStats_BitRate : 256000
FromStats_Duration : 00:21:38.400000000
FromStats_FrameCount : 40575
FromStats_StreamSize : 41548800

Text
ID : 3
Format : ASS
Codec ID : S_TEXT/ASS
Codec ID/Info : Advanced Sub Station Alpha
Compression mode : Lossless
Writing library : Lavc58.55.100 ssa
Language : English
Default : No
Forced : No
Statistics Tags Issue : mkvmerge v38.0.0 ('The Silent Type') 64-bit 2019-11-08 10:00:35 / Lavf58.30.100
FromStats_BitRate : 93
FromStats_Duration : 00:21:30.083000000
FromStats_FrameCount : 460
FromStats_StreamSize : 15017





Will & Grace S11E03


Will & Grace S11E03


Will & Grace S11E03


Will & Grace S11E03


Will & Grace S11E03

All episodes