Featured TV Shows


Without You S01E03

Posted By: Tavaz
SD / WEBRip IMDb
Without You S01E03

Without You S01E03
WEBRip | MKV | 896x504 | English | H264 @ 1483 kbps | AAC @ 96 kbps | 47 min 48 s | 541 MiB
Genre: Drama

Ellie's beloved husband is killed in a car accident. A woman was in the car with him and killed too. Who was she? Was he having an affair? Was it an accident?

Without.You.S01E03.INTERNAL.WEB.x264-spamTV.mkv (540.9 MB)
without.you.s01e03.internal.web.x264-spamtv.sample.mkv (11.7 MB)



General
Unique ID : 193455284756609291336679493992267201852 (0x918A21F0D8A07891B4B23EC578393D3C)
Complete name : ./Without.You.S01E03.INTERNAL.WEB.x264-spamTV.mkv
Format : Matroska
Format version : Version 4 / Version 2
File size : 541 MiB
Duration : 47 min 48 s
Overall bit rate : 1 582 kb/s
Encoded date : UTC 2016-09-05 05:42:59
Writing application : mkvmerge v8.3.0 ('Over the Horizon') 64bit
Writing library : libebml v1.3.1 + libmatroska v1.4.2

Video
ID : 2
Format : AVC
Format/Info : Advanced Video Codec
Format profile : High@L3.1
Format settings : CABAC / 6 Ref Frames
Format settings, CABAC : Yes
Format settings, RefFrames : 6 frames
Codec ID : V_MPEG4/ISO/AVC
Duration : 47 min 48 s
Bit rate : 1 483 kb/s
Nominal bit rate : 1 704 kb/s
Width : 896 pixels
Height : 504 pixels
Display aspect ratio : 16:9
Frame rate mode : Constant
Frame rate : 25.000 FPS
Color space : YUV
Chroma subsampling : 4:2:0
Bit depth : 8 bits
Scan type : Progressive
Bits/(Pixel*Frame) : 0.131
Stream size : 507 MiB (94%)
Writing library : x264 core 138
Encoding settings : cabac=1 / ref=6 / deblock=1:-1:-1 / analyse=0x3:0x113 / me=umh / subme=8 / psy=1 / psy_rd=0.60:1.00 / mixed_ref=1 / me_range=16 / chroma_me=1 / trellis=2 / 8x8dct=1 / cqm=0 / deadzone=21,11 / fast_pskip=1 / chroma_qp_offset=-4 / threads=5 / lookahead_threads=1 / sliced_threads=0 / nr=0 / decimate=1 / interlaced=0 / bluray_compat=0 / constrained_intra=0 / bframes=3 / b_pyramid=0 / b_adapt=2 / b_bias=0 / direct=3 / weightb=1 / open_gop=0 / weightp=2 / keyint=150 / keyint_min=15 / scenecut=0 / intra_refresh=0 / rc_lookahead=60 / rc=cbr / mbtree=1 / bitrate=1704 / ratetol=1.0 / qcomp=0.60 / qpmin=0 / qpmax=69 / qpstep=4 / vbv_maxrate=1704 / vbv_bufsize=1278 / nal_hrd=none / filler=0 / ip_ratio=1.40 / aq=1:1.40
Default : Yes
Forced : No

Audio
ID : 3
Format : AAC
Format/Info : Advanced Audio Codec
Format profile : LC
Codec ID : A_AAC-2
Duration : 47 min 48 s
Bit rate : 96.0 kb/s
Channel(s) : 2 channels
Channel positions : Front: L R
Sampling rate : 48.0 kHz
Frame rate : 46.875 FPS (1024 SPF)
Compression mode : Lossy
Stream size : 32.9 MiB (6%)
Default : Yes
Forced : No

Text
ID : 1
Format : UTF-8
Codec ID : S_TEXT/UTF8
Codec ID/Info : UTF-8 Plain Text
Duration : 47 min 18 s
Bit rate : 72 b/s
Count of elements : 477
Stream size : 25.0 KiB (0%)
Title : en
Default : No
Forced : No





Without You S01E03


Without You S01E03


Without You S01E03


Without You S01E03


Without You S01E03

All episodes