Index
# A B C D E F G H I J K L M N O P Q R S T U V W Y Z
Tags
Language
Tags

Featured TV Shows


Zenimation S02E07

Posted By: Tavaz
1080p (FullHD) / WEBRip IMDb
Zenimation S02E07

Zenimation S02E07
WEBRip | MKV | 1920x1080 | English | H264 @ 6925 kbps | E-AC-3 @ 256 kbps | 4 min 58 s | 255 MiB
Subtitles: English
Genre: Animation, Family


Unplug, relax, and refresh your senses for a moment of mindfulness with Walt Disney Animation Studios’ Zenimation - an animated soundscape experience.

8dc3c7b8df3749e3a696704c0dd3c408.mkv (255.4 MB)



General
Unique ID : 32427567252146637531528943353426447064 (0x18655280E80327F3F568542889D58AD8)
Complete name : ./8dc3c7b8df3749e3a696704c0dd3c408.mkv
Format : Matroska
Format version : Version 4 / Version 2
File size : 255 MiB
Duration : 4 min 58 s
Overall bit rate mode : Variable
Overall bit rate : 7 183 kb/s
Writing application : mkvmerge v55.0.0 ('Waiting For Space') 64-bit
Writing library : libebml v1.4.2 + libmatroska v1.6.4

Video
ID : 1
Format : AVC
Format/Info : Advanced Video Codec
Format profile : High@L4
Format settings : CABAC / 4 Ref Frames
Format settings, CABAC : Yes
Format settings, RefFrames : 4 frames
Codec ID : V_MPEG4/ISO/AVC
Duration : 4 min 58 s
Bit rate mode : Variable
Bit rate : 6 925 kb/s
Maximum bit rate : 12.7 Mb/s
Width : 1 920 pixels
Height : 1 080 pixels
Display aspect ratio : 16:9
Frame rate mode : Constant
Frame rate : 24.000 FPS
Color space : YUV
Chroma subsampling : 4:2:0
Bit depth : 8 bits
Scan type : Progressive
Bits/(Pixel*Frame) : 0.139
Stream size : 246 MiB (96%)
Language : English
Default : Yes
Forced : No
Color range : Limited
Color primaries : BT.709
Transfer characteristics : BT.709
Matrix coefficients : BT.709

Audio
ID : 2
Format : E-AC-3
Format/Info : Enhanced Audio Coding 3
Format settings, Endianness : Big
Codec ID : A_EAC3
Duration : 4 min 58 s
Bit rate mode : Constant
Bit rate : 256 kb/s
Channel(s) : 6 channels
Channel positions : Front: L C R, Side: L R, LFE
Sampling rate : 48.0 kHz
Frame rate : 187.500 FPS (256 SPF)
Compression mode : Lossy
Stream size : 9.10 MiB (4%)
Language : English
Service kind : Complete Main
Default : Yes
Forced : No

Text
ID : 3
Format : UTF-8
Codec ID : S_TEXT/UTF8
Codec ID/Info : UTF-8 Plain Text
Duration : 4 min 46 s
Bit rate : 8 b/s
Count of elements : 17
Stream size : 304 Bytes (0%)
Title : English (SDH)
Language : English
Default : No
Forced : No





Zenimation S02E07


Zenimation S02E07


Zenimation S02E07


Zenimation S02E07


Zenimation S02E07

All episodes