Index
# A B C D E F G H I J K L M N O P Q R S T U V W Y Z
Tags
Language
Tags

Featured TV Shows


Zenimation S02E08

Posted By: Tavaz
720p (HD) / WEB-DL IMDb
Zenimation S02E08

Zenimation S02E08
WEB-DL | MKV | 1280x720 | English | H264 @ 3155 kbps | E-AC-3 @ 256 kbps | 6 min 24 s | 157 MiB
Subtitles: English
Genre: Animation, Family


Unplug, relax, and refresh your senses for a moment of mindfulness with Walt Disney Animation Studios’ Zenimation - an animated soundscape experience.

a677d571a2ba456987b07034efa1e9fc.mkv (156.6 MB)



General
Unique ID : 91924056715528686792818001128946669624 (0x4527EDE979A646C1D23605F7D2DC1838)
Complete name : ./a677d571a2ba456987b07034efa1e9fc.mkv
Format : Matroska
Format version : Version 4 / Version 2
File size : 157 MiB
Duration : 6 min 24 s
Overall bit rate mode : Variable
Overall bit rate : 3 413 kb/s
Encoded date : UTC 2021-06-11 13:16:37
Writing application : mkvmerge v57.0.0 ('Till The End') 64-bit
Writing library : libebml v1.4.2 + libmatroska v1.6.4

Video
ID : 1
Format : AVC
Format/Info : Advanced Video Codec
Format profile : High@L3.1
Format settings : CABAC / 4 Ref Frames
Format settings, CABAC : Yes
Format settings, RefFrames : 4 frames
Codec ID : V_MPEG4/ISO/AVC
Duration : 6 min 24 s
Bit rate mode : Variable
Bit rate : 3 155 kb/s
Maximum bit rate : 6 375 kb/s
Width : 1 280 pixels
Height : 720 pixels
Display aspect ratio : 16:9
Frame rate mode : Constant
Frame rate : 24.000 FPS
Color space : YUV
Chroma subsampling : 4:2:0
Bit depth : 8 bits
Scan type : Progressive
Bits/(Pixel*Frame) : 0.143
Stream size : 145 MiB (92%)
Writing library : AVC Coding
Default : Yes
Forced : No
Color range : Limited
Color primaries : BT.709
Transfer characteristics : BT.709
Matrix coefficients : BT.709

Audio
ID : 2
Format : E-AC-3
Format/Info : Enhanced Audio Coding 3
Format settings, Endianness : Big
Codec ID : A_EAC3
Duration : 6 min 24 s
Bit rate mode : Constant
Bit rate : 256 kb/s
Channel(s) : 6 channels
Channel positions : Front: L C R, Side: L R, LFE
Sampling rate : 48.0 kHz
Frame rate : 187.500 FPS (256 SPF)
Compression mode : Lossy
Stream size : 11.7 MiB (8%)
Language : English
Service kind : Complete Main
Default : Yes
Forced : No

Text
ID : 3
Format : UTF-8
Codec ID : S_TEXT/UTF8
Codec ID/Info : UTF-8 Plain Text
Duration : 6 min 12 s
Bit rate : 11 b/s
Count of elements : 31
Stream size : 530 Bytes (0%)
Language : English
Default : No
Forced : No





Zenimation S02E08


Zenimation S02E08


Zenimation S02E08


Zenimation S02E08


Zenimation S02E08

All episodes