Featured TV Shows


ZeroZeroZero S01E01

Posted By: Tavaz
720p (HD) / WEBRip IMDb
ZeroZeroZero S01E01

ZeroZeroZero S01E01
WEBRip | MKV | 1280x720 | English | H264 @ 2820 kbps | E-AC-3 @ 640 kbps | 57 min 26 s | 1.39 GiB
Subtitles: Español, Français, Português, English
Genre: Crime, Drama


Based on the book of the same name by bestselling author Roberto Saviano, ZeroZeroZero is an unforgettable exploration of the inner workings of the global cocaine trade.

e8563063578309aac5752beae30f4265.mkv (1.4 GB)



General
Unique ID : 84114125766674659502592214534549931621 (0x3F47CA964E885A7B9F62B796E8A40665)
Complete name : ./e8563063578309aac5752beae30f4265.mkv
Format : Matroska
Format version : Version 4 / Version 2
File size : 1.39 GiB
Duration : 57 min 26 s
Overall bit rate : 3 463 kb/s
Encoded date : UTC 2020-03-06 02:17:54
Writing application : mkvmerge v25.0.0 ('Prog Noir') 32-bit
Writing library : libebml v1.3.6 + libmatroska v1.4.9

Video
ID : 1
Format : AVC
Format/Info : Advanced Video Codec
Format profile : High@L3.1
Format settings : CABAC / 4 Ref Frames
Format settings, CABAC : Yes
Format settings, RefFrames : 4 frames
Codec ID : V_MPEG4/ISO/AVC
Duration : 57 min 26 s
Bit rate mode : Constant
Bit rate : 2 821 kb/s
Nominal bit rate : 6 000 kb/s
Width : 1 280 pixels
Height : 720 pixels
Display aspect ratio : 16:9
Frame rate mode : Constant
Frame rate : 25.000 FPS
Color space : YUV
Chroma subsampling : 4:2:0
Bit depth : 8 bits
Scan type : Progressive
Bits/(Pixel*Frame) : 0.122
Stream size : 1.13 GiB (81%)
Default : Yes
Forced : No
Color range : Limited
Color primaries : BT.709
Transfer characteristics : BT.709
Matrix coefficients : BT.709

Audio
ID : 2
Format : E-AC-3
Format/Info : Enhanced Audio Coding 3
Format settings, Endianness : Big
Codec ID : A_EAC3
Duration : 57 min 26 s
Bit rate mode : Constant
Bit rate : 640 kb/s
Channel(s) : 6 channels
Channel positions : Front: L C R, Side: L R, LFE
Sampling rate : 48.0 kHz
Frame rate : 187.500 FPS (256 SPF)
Compression mode : Lossy
Stream size : 263 MiB (18%)
Title : English
Language : English
Service kind : Complete Main
Default : Yes
Forced : No

Text #1
ID : 3
Format : UTF-8
Codec ID : S_TEXT/UTF8
Codec ID/Info : UTF-8 Plain Text
Duration : 51 min 53 s
Bit rate : 17 b/s
Count of elements : 238
Stream size : 6.61 KiB (0%)
Title : English [Forced]
Language : English
Default : No
Forced : Yes

Text #2
ID : 4
Format : UTF-8
Codec ID : S_TEXT/UTF8
Codec ID/Info : UTF-8 Plain Text
Duration : 55 min 13 s
Bit rate : 35 b/s
Count of elements : 439
Stream size : 14.5 KiB (0%)
Title : English
Language : English
Default : No
Forced : No

Text #3
ID : 5
Format : UTF-8
Codec ID : S_TEXT/UTF8
Codec ID/Info : UTF-8 Plain Text
Duration : 55 min 22 s
Bit rate : 37 b/s
Count of elements : 473
Stream size : 15.2 KiB (0%)
Title : English [SDH]
Language : English
Default : No
Forced : No

Text #4
ID : 6
Format : UTF-8
Codec ID : S_TEXT/UTF8
Codec ID/Info : UTF-8 Plain Text
Duration : 57 min 1 s
Bit rate : 22 b/s
Count of elements : 357
Stream size : 9.53 KiB (0%)
Title : Castilian
Language : Spanish
Default : No
Forced : No

Text #5
ID : 7
Format : UTF-8
Codec ID : S_TEXT/UTF8
Codec ID/Info : UTF-8 Plain Text
Duration : 57 min 1 s
Bit rate : 23 b/s
Count of elements : 359
Stream size : 9.86 KiB (0%)
Title : Spanish
Language : Spanish
Default : No
Forced : No

Text #6
ID : 8
Format : UTF-8
Codec ID : S_TEXT/UTF8
Codec ID/Info : UTF-8 Plain Text
Duration : 57 min 1 s
Bit rate : 34 b/s
Count of elements : 506
Stream size : 14.4 KiB (0%)
Title : French (Canada)
Language : French
Default : No
Forced : No

Text #7
ID : 9
Format : UTF-8
Codec ID : S_TEXT/UTF8
Codec ID/Info : UTF-8 Plain Text
Duration : 57 min 1 s
Bit rate : 33 b/s
Count of elements : 506
Stream size : 13.9 KiB (0%)
Title : Brazilian Portuguese
Language : Portuguese
Default : No
Forced : No

Menu
00:00:00.000 : en:Amazon Original
00:00:05.000 : en:Story about Powder
00:03:36.000 : en:The buyers
00:08:36.000 : en:Stefano prepares for his action
00:12:19.000 : en:Stefano tells what he thinks
00:17:56.000 : en:Opening Credits
00:19:48.000 : en:The Sellers
00:22:40.000 : en:Interception
00:25:04.000 : en:Gun fire in the town
00:27:40.000 : en:Torture the guy
00:31:25.000 : en:The Meeting
00:35:33.000 : en:Unexpected fire
00:37:50.000 : en:New Orleans, USA
00:40:49.000 : en:Chris is with Edward at racecourse
00:43:04.000 : en:Chris wonders about family business
00:46:43.000 : en:Emma argues with Edward
00:48:47.000 : en:Emma tries to fix it
00:51:05.000 : en:Monterrey, Mexico
00:55:56.000 : en:End Credits





ZeroZeroZero S01E01


ZeroZeroZero S01E01


ZeroZeroZero S01E01


ZeroZeroZero S01E01


ZeroZeroZero S01E01

All episodes