Featured TV Shows


ZeroZeroZero S01E02

Posted By: Tavaz
720p (HD) / WEBRip IMDb
ZeroZeroZero S01E02

ZeroZeroZero S01E02
WEBRip | MKV | 1280x720 | English | H264 @ 2393 kbps | E-AC-3 @ 640 kbps | 1 h 6 min | 1.40 GiB
Subtitles: Español, Français, Português, English
Genre: Crime, Drama


Based on the book of the same name by bestselling author Roberto Saviano, ZeroZeroZero is an unforgettable exploration of the inner workings of the global cocaine trade.

f16e3c31b91a4c2a89392f241a010b02.mkv (1.4 GB)



General
Unique ID : 206578557961836173441112893500759590603 (0x9B699543BA78C736B7D00D032B9DC6CB)
Complete name : ./f16e3c31b91a4c2a89392f241a010b02.mkv
Format : Matroska
Format version : Version 4 / Version 2
File size : 1.40 GiB
Duration : 1 h 6 min
Overall bit rate : 3 035 kb/s
Encoded date : UTC 2020-03-06 02:19:46
Writing application : mkvmerge v25.0.0 ('Prog Noir') 32-bit
Writing library : libebml v1.3.6 + libmatroska v1.4.9

Video
ID : 1
Format : AVC
Format/Info : Advanced Video Codec
Format profile : High@L3.1
Format settings : CABAC / 4 Ref Frames
Format settings, CABAC : Yes
Format settings, RefFrames : 4 frames
Codec ID : V_MPEG4/ISO/AVC
Duration : 1 h 6 min
Bit rate mode : Constant
Bit rate : 2 393 kb/s
Nominal bit rate : 6 000 kb/s
Width : 1 280 pixels
Height : 720 pixels
Display aspect ratio : 16:9
Frame rate mode : Constant
Frame rate : 25.000 FPS
Color space : YUV
Chroma subsampling : 4:2:0
Bit depth : 8 bits
Scan type : Progressive
Bits/(Pixel*Frame) : 0.104
Stream size : 1.11 GiB (79%)
Default : Yes
Forced : No
Color range : Limited
Color primaries : BT.709
Transfer characteristics : BT.709
Matrix coefficients : BT.709

Audio
ID : 2
Format : E-AC-3
Format/Info : Enhanced Audio Coding 3
Format settings, Endianness : Big
Codec ID : A_EAC3
Duration : 1 h 6 min
Bit rate mode : Constant
Bit rate : 640 kb/s
Channel(s) : 6 channels
Channel positions : Front: L C R, Side: L R, LFE
Sampling rate : 48.0 kHz
Frame rate : 187.500 FPS (256 SPF)
Compression mode : Lossy
Stream size : 303 MiB (21%)
Title : English
Language : English
Service kind : Complete Main
Default : Yes
Forced : No

Text #1
ID : 3
Format : UTF-8
Codec ID : S_TEXT/UTF8
Codec ID/Info : UTF-8 Plain Text
Duration : 1 h 2 min
Bit rate : 19 b/s
Count of elements : 285
Stream size : 8.86 KiB (0%)
Title : English [Forced]
Language : English
Default : No
Forced : Yes

Text #2
ID : 4
Format : UTF-8
Codec ID : S_TEXT/UTF8
Codec ID/Info : UTF-8 Plain Text
Duration : 1 h 2 min
Bit rate : 26 b/s
Count of elements : 367
Stream size : 12.4 KiB (0%)
Title : English
Language : English
Default : No
Forced : No

Text #3
ID : 5
Format : UTF-8
Codec ID : S_TEXT/UTF8
Codec ID/Info : UTF-8 Plain Text
Duration : 1 h 3 min
Bit rate : 28 b/s
Count of elements : 409
Stream size : 13.1 KiB (0%)
Title : English [SDH]
Language : English
Default : No
Forced : No

Text #4
ID : 6
Format : UTF-8
Codec ID : S_TEXT/UTF8
Codec ID/Info : UTF-8 Plain Text
Duration : 1 h 4 min
Bit rate : 10 b/s
Count of elements : 179
Stream size : 4.77 KiB (0%)
Title : Castilian
Language : Spanish
Default : No
Forced : No

Text #5
ID : 7
Format : UTF-8
Codec ID : S_TEXT/UTF8
Codec ID/Info : UTF-8 Plain Text
Duration : 1 h 4 min
Bit rate : 10 b/s
Count of elements : 179
Stream size : 4.92 KiB (0%)
Title : Spanish
Language : Spanish
Default : No
Forced : No

Text #6
ID : 8
Format : UTF-8
Codec ID : S_TEXT/UTF8
Codec ID/Info : UTF-8 Plain Text
Duration : 1 h 5 min
Bit rate : 25 b/s
Count of elements : 435
Stream size : 12.1 KiB (0%)
Title : French (Canada)
Language : French
Default : No
Forced : No

Text #7
ID : 9
Format : UTF-8
Codec ID : S_TEXT/UTF8
Codec ID/Info : UTF-8 Plain Text
Duration : 1 h 4 min
Bit rate : 25 b/s
Count of elements : 433
Stream size : 12.0 KiB (0%)
Title : Brazilian Portuguese
Language : Portuguese
Default : No
Forced : No

Menu
00:00:00.000 : en:Amazon Original
00:00:05.000 : en:Aspromonte, Calabria
00:08:10.000 : en:Opening Credits
00:10:02.000 : en:Monterrey, Mexico
00:12:22.000 : en:New Orleans, USA
00:14:45.000 : en:Emma tells Edward's last word
00:17:42.000 : en:Edward's funeral
00:20:06.000 : en:Unexpected visitor
00:24:46.000 : en:Emma is at her office
00:26:31.000 : en:Stefano meets Emma
00:28:24.000 : en:Emma comes back to home
00:29:53.000 : en:Chris is on onboard
00:32:20.000 : en:The team is under his mission
00:38:28.000 : en:Manuel is called by the captain
00:41:59.000 : en:Manuel is in the car
00:44:30.000 : en:Manuel prays
00:50:40.000 : en:After the tragedy
00:51:59.000 : en:Chiquitita looks for Bunny
00:53:35.000 : en:Listen to the news
00:56:03.000 : en:Scene 20
00:57:57.000 : en:Tonight's the night
00:59:24.000 : en:Get on the ship
01:04:44.000 : en:End Credits





ZeroZeroZero S01E02


ZeroZeroZero S01E02


ZeroZeroZero S01E02


ZeroZeroZero S01E02


ZeroZeroZero S01E02

All episodes