Featured TV Shows


ZeroZeroZero S01E03

Posted By: Tavaz
720p (HD) / WEBRip IMDb
ZeroZeroZero S01E03

ZeroZeroZero S01E03
WEBRip | MKV | 1280x720 | English | H264 @ 1842 kbps | E-AC-3 @ 640 kbps | 57 min 17 s | 1 018 MiB
Subtitles: Español, Français, Português, English
Genre: Crime, Drama


Based on the book of the same name by bestselling author Roberto Saviano, ZeroZeroZero is an unforgettable exploration of the inner workings of the global cocaine trade.

1a3368e8eb05b258dea6cb0408bb04aa.mkv (1018.1 MB)



General
Unique ID : 267695328639361869978087104242201907542 (0xC9643EB461D3677115F744F21907D156)
Complete name : ./1a3368e8eb05b258dea6cb0408bb04aa.mkv
Format : Matroska
Format version : Version 4 / Version 2
File size : 1 018 MiB
Duration : 57 min 17 s
Overall bit rate : 2 484 kb/s
Encoded date : UTC 2020-03-06 02:21:18
Writing application : mkvmerge v25.0.0 ('Prog Noir') 32-bit
Writing library : libebml v1.3.6 + libmatroska v1.4.9

Video
ID : 1
Format : AVC
Format/Info : Advanced Video Codec
Format profile : High@L3.1
Format settings : CABAC / 4 Ref Frames
Format settings, CABAC : Yes
Format settings, RefFrames : 4 frames
Codec ID : V_MPEG4/ISO/AVC
Duration : 57 min 17 s
Bit rate mode : Constant
Bit rate : 1 842 kb/s
Nominal bit rate : 6 000 kb/s
Width : 1 280 pixels
Height : 720 pixels
Display aspect ratio : 16:9
Frame rate mode : Constant
Frame rate : 25.000 FPS
Color space : YUV
Chroma subsampling : 4:2:0
Bit depth : 8 bits
Scan type : Progressive
Bits/(Pixel*Frame) : 0.080
Stream size : 755 MiB (74%)
Default : Yes
Forced : No
Color range : Limited
Color primaries : BT.709
Transfer characteristics : BT.709
Matrix coefficients : BT.709

Audio
ID : 2
Format : E-AC-3
Format/Info : Enhanced Audio Coding 3
Format settings, Endianness : Big
Codec ID : A_EAC3
Duration : 57 min 17 s
Bit rate mode : Constant
Bit rate : 640 kb/s
Channel(s) : 6 channels
Channel positions : Front: L C R, Side: L R, LFE
Sampling rate : 48.0 kHz
Frame rate : 187.500 FPS (256 SPF)
Compression mode : Lossy
Stream size : 262 MiB (26%)
Title : English
Language : English
Service kind : Complete Main
Default : Yes
Forced : No

Text #1
ID : 3
Format : UTF-8
Codec ID : S_TEXT/UTF8
Codec ID/Info : UTF-8 Plain Text
Duration : 54 min 37 s
Bit rate : 18 b/s
Count of elements : 261
Stream size : 7.29 KiB (0%)
Title : English [Forced]
Language : English
Default : No
Forced : Yes

Text #2
ID : 4
Format : UTF-8
Codec ID : S_TEXT/UTF8
Codec ID/Info : UTF-8 Plain Text
Duration : 54 min 38 s
Bit rate : 24 b/s
Count of elements : 286
Stream size : 9.64 KiB (0%)
Title : English
Language : English
Default : No
Forced : No

Text #3
ID : 5
Format : UTF-8
Codec ID : S_TEXT/UTF8
Codec ID/Info : UTF-8 Plain Text
Duration : 55 min 35 s
Bit rate : 24 b/s
Count of elements : 317
Stream size : 10.1 KiB (0%)
Title : English [SDH]
Language : English
Default : No
Forced : No

Text #4
ID : 6
Format : UTF-8
Codec ID : S_TEXT/UTF8
Codec ID/Info : UTF-8 Plain Text
Duration : 47 min 47 s
Bit rate : 19 b/s
Count of elements : 266
Stream size : 6.99 KiB (0%)
Title : Castilian
Language : Spanish
Default : No
Forced : No

Text #5
ID : 7
Format : UTF-8
Codec ID : S_TEXT/UTF8
Codec ID/Info : UTF-8 Plain Text
Duration : 47 min 47 s
Bit rate : 19 b/s
Count of elements : 268
Stream size : 6.99 KiB (0%)
Title : Spanish
Language : Spanish
Default : No
Forced : No

Text #6
ID : 8
Format : UTF-8
Codec ID : S_TEXT/UTF8
Codec ID/Info : UTF-8 Plain Text
Duration : 56 min 14 s
Bit rate : 24 b/s
Count of elements : 357
Stream size : 10.1 KiB (0%)
Title : French (Canada)
Language : French
Default : No
Forced : No

Text #7
ID : 9
Format : UTF-8
Codec ID : S_TEXT/UTF8
Codec ID/Info : UTF-8 Plain Text
Duration : 56 min 14 s
Bit rate : 22 b/s
Count of elements : 354
Stream size : 9.31 KiB (0%)
Title : Brazilian Portuguese
Language : Portuguese
Default : No
Forced : No

Menu
00:00:00.000 : en:Amazon Original
00:00:05.000 : en:Montrerry, Mexico
00:07:30.000 : en:Opening Credits
00:09:23.000 : en:The Atlantic Ocean
00:14:49.000 : en:Chris checks something
00:19:31.000 : en:Chris tries to evaculate
00:25:54.000 : en:New Orleans, USA
00:28:57.000 : en:Reggiocalabria, Italy
00:31:29.000 : en:Stefano checks a monitor
00:34:15.000 : en:Don Minu calls Stefano
00:38:12.000 : en:Don Minu visits Benedetto
00:41:43.000 : en:Benedetto and his two sons
00:44:19.000 : en:Stefano contacts to Lucia
00:46:07.000 : en:Don Minu threatens Stefano
00:52:56.000 : en:Giuseppe arrives
00:55:47.000 : en:End Credits





ZeroZeroZero S01E03


ZeroZeroZero S01E03


ZeroZeroZero S01E03


ZeroZeroZero S01E03


ZeroZeroZero S01E03

All episodes