Featured TV Shows


ZeroZeroZero S01E04

Posted By: Tavaz
1080p (FullHD) / WEB-DL IMDb
ZeroZeroZero S01E04

ZeroZeroZero S01E04
WEB-DL | MKV | 1920x1080 | English | H264 @ 5132 kbps | E-AC-3 @ 640 kbps | 48 min 25 s | 1.95 GiB
Subtitles: Español, Français, Português, English
Genre: Crime, Drama


Based on the book of the same name by bestselling author Roberto Saviano, ZeroZeroZero is an unforgettable exploration of the inner workings of the global cocaine trade.

e2264ccb09f281ddd8d27f7ea836a0dd.mkv (2.0 GB)



General
Unique ID : 209145312235894717662762072831527439029 (0x9D57EC055489A06CC8E054F078E34AB5)
Complete name : ./e2264ccb09f281ddd8d27f7ea836a0dd.mkv
Format : Matroska
Format version : Version 4 / Version 2
File size : 1.95 GiB
Duration : 48 min 25 s
Overall bit rate : 5 775 kb/s
Encoded date : UTC 2020-03-06 10:04:31
Writing application : mkvmerge v21.0.0 ('Tardigrades Will Inherit The Earth') 64-bit
Writing library : libebml v1.3.5 + libmatroska v1.4.8

Video
ID : 1
Format : AVC
Format/Info : Advanced Video Codec
Format profile : High@L4
Format settings : CABAC / 4 Ref Frames
Format settings, CABAC : Yes
Format settings, RefFrames : 4 frames
Codec ID : V_MPEG4/ISO/AVC
Duration : 48 min 25 s
Bit rate mode : Constant
Bit rate : 5 133 kb/s
Nominal bit rate : 10 000 kb/s
Width : 1 920 pixels
Height : 1 080 pixels
Display aspect ratio : 16:9
Frame rate mode : Constant
Frame rate : 25.000 FPS
Color space : YUV
Chroma subsampling : 4:2:0
Bit depth : 8 bits
Scan type : Progressive
Bits/(Pixel*Frame) : 0.099
Stream size : 1.74 GiB (89%)
Default : Yes
Forced : No
Color range : Limited
Color primaries : BT.709
Transfer characteristics : BT.709
Matrix coefficients : BT.709

Audio
ID : 2
Format : E-AC-3
Format/Info : Enhanced Audio Coding 3
Format settings, Endianness : Big
Codec ID : A_EAC3
Duration : 48 min 25 s
Bit rate mode : Constant
Bit rate : 640 kb/s
Channel(s) : 6 channels
Channel positions : Front: L C R, Side: L R, LFE
Sampling rate : 48.0 kHz
Frame rate : 187.500 FPS (256 SPF)
Compression mode : Lossy
Stream size : 222 MiB (11%)
Language : English
Service kind : Complete Main
Default : Yes
Forced : No

Text #1
ID : 3
Format : UTF-8
Codec ID : S_TEXT/UTF8
Codec ID/Info : UTF-8 Plain Text
Duration : 39 min 45 s
Bit rate : 12 b/s
Count of elements : 129
Stream size : 3.61 KiB (0%)
Title : Forced
Language : English
Default : Yes
Forced : Yes

Text #2
ID : 4
Format : UTF-8
Codec ID : S_TEXT/UTF8
Codec ID/Info : UTF-8 Plain Text
Duration : 45 min 48 s
Bit rate : 31 b/s
Count of elements : 323
Stream size : 10.5 KiB (0%)
Language : English
Default : No
Forced : No

Text #3
ID : 5
Format : UTF-8
Codec ID : S_TEXT/UTF8
Codec ID/Info : UTF-8 Plain Text
Duration : 45 min 48 s
Bit rate : 31 b/s
Count of elements : 323
Stream size : 10.5 KiB (0%)
Title : SDH
Language : English
Default : No
Forced : No

Text #4
ID : 6
Format : UTF-8
Codec ID : S_TEXT/UTF8
Codec ID/Info : UTF-8 Plain Text
Duration : 31 min 3 s
Bit rate : 28 b/s
Count of elements : 246
Stream size : 6.59 KiB (0%)
Title : Latinoamérica
Language : Spanish
Default : No
Forced : No

Text #5
ID : 7
Format : UTF-8
Codec ID : S_TEXT/UTF8
Codec ID/Info : UTF-8 Plain Text
Duration : 31 min 3 s
Bit rate : 28 b/s
Count of elements : 244
Stream size : 6.49 KiB (0%)
Title : España
Language : Spanish
Default : No
Forced : No

Text #6
ID : 8
Format : UTF-8
Codec ID : S_TEXT/UTF8
Codec ID/Info : UTF-8 Plain Text
Duration : 47 min 59 s
Bit rate : 26 b/s
Count of elements : 354
Stream size : 9.15 KiB (0%)
Language : French
Default : No
Forced : No

Text #7
ID : 9
Format : UTF-8
Codec ID : S_TEXT/UTF8
Codec ID/Info : UTF-8 Plain Text
Duration : 47 min 11 s
Bit rate : 28 b/s
Count of elements : 369
Stream size : 9.96 KiB (0%)
Language : Portuguese
Default : No
Forced : No

Menu
00:00:00.000 : en:Amazon Original
00:00:05.000 : en:Monterrey, Mexico
00:05:29.000 : en:Misionero hides
00:08:23.000 : en:Manuel visits Chiquitita
00:13:36.000 : en:Opening Credits
00:15:29.000 : en:Dakar, Senegal
00:20:05.000 : en:Chris needs a special medicine
00:23:16.000 : en:Emma comes to Senegal
00:28:56.000 : en:Chris takes the medicine
00:33:01.000 : en:Chris visits Mongo
00:38:48.000 : en:Mongo and Chris are at the port
00:41:29.000 : en:Chris comes to Emma
00:46:49.000 : en:End Credits





ZeroZeroZero S01E04


ZeroZeroZero S01E04


ZeroZeroZero S01E04


ZeroZeroZero S01E04


ZeroZeroZero S01E04

All episodes