Featured TV Shows


ZeroZeroZero S01E06

Posted By: Tavaz
1080p (FullHD) / WEBRip IMDb
ZeroZeroZero S01E06

ZeroZeroZero S01E06
WEBRip | MKV | 1920x1080 | English | H264 @ 6313 kbps | E-AC-3 @ 640 kbps | 55 min 40 s | 2.71 GiB
Subtitles: Español, Français, Português, English
Genre: Crime, Drama


Based on the book of the same name by bestselling author Roberto Saviano, ZeroZeroZero is an unforgettable exploration of the inner workings of the global cocaine trade.

a303bc5b904b475399195c4d5d39ab16.mkv (2.7 GB)



General
Unique ID : 98462056650670434426343313564729122082 (0x4A131A323ADC7B7F54B77E40A5E89D22)
Complete name : ./a303bc5b904b475399195c4d5d39ab16.mkv
Format : Matroska
Format version : Version 4 / Version 2
File size : 2.71 GiB
Duration : 55 min 40 s
Overall bit rate : 6 955 kb/s
Encoded date : UTC 2020-03-06 02:09:26
Writing application : mkvmerge v25.0.0 ('Prog Noir') 32-bit
Writing library : libebml v1.3.6 + libmatroska v1.4.9

Video
ID : 1
Format : AVC
Format/Info : Advanced Video Codec
Format profile : High@L4
Format settings : CABAC / 4 Ref Frames
Format settings, CABAC : Yes
Format settings, RefFrames : 4 frames
Codec ID : V_MPEG4/ISO/AVC
Duration : 55 min 40 s
Bit rate mode : Constant
Bit rate : 6 313 kb/s
Nominal bit rate : 10 000 kb/s
Width : 1 920 pixels
Height : 1 080 pixels
Display aspect ratio : 16:9
Frame rate mode : Constant
Frame rate : 25.000 FPS
Color space : YUV
Chroma subsampling : 4:2:0
Bit depth : 8 bits
Scan type : Progressive
Bits/(Pixel*Frame) : 0.122
Stream size : 2.46 GiB (91%)
Default : Yes
Forced : No
Color range : Limited
Color primaries : BT.709
Transfer characteristics : BT.709
Matrix coefficients : BT.709

Audio
ID : 2
Format : E-AC-3
Format/Info : Enhanced Audio Coding 3
Format settings, Endianness : Big
Codec ID : A_EAC3
Duration : 55 min 40 s
Bit rate mode : Constant
Bit rate : 640 kb/s
Channel(s) : 6 channels
Channel positions : Front: L C R, Side: L R, LFE
Sampling rate : 48.0 kHz
Frame rate : 187.500 FPS (256 SPF)
Compression mode : Lossy
Stream size : 255 MiB (9%)
Title : English
Language : English
Service kind : Complete Main
Default : Yes
Forced : No

Text #1
ID : 3
Format : UTF-8
Codec ID : S_TEXT/UTF8
Codec ID/Info : UTF-8 Plain Text
Duration : 49 min 0 s
Bit rate : 37 b/s
Count of elements : 544
Stream size : 13.5 KiB (0%)
Title : English [Forced]
Language : English
Default : No
Forced : Yes

Text #2
ID : 4
Format : UTF-8
Codec ID : S_TEXT/UTF8
Codec ID/Info : UTF-8 Plain Text
Duration : 54 min 45 s
Bit rate : 34 b/s
Count of elements : 562
Stream size : 13.8 KiB (0%)
Title : English
Language : English
Default : No
Forced : No

Text #3
ID : 5
Format : UTF-8
Codec ID : S_TEXT/UTF8
Codec ID/Info : UTF-8 Plain Text
Duration : 54 min 47 s
Bit rate : 36 b/s
Count of elements : 608
Stream size : 14.8 KiB (0%)
Title : English [SDH]
Language : English
Default : No
Forced : No

Text #4
ID : 6
Format : UTF-8
Codec ID : S_TEXT/UTF8
Codec ID/Info : UTF-8 Plain Text
Duration : 54 min 20 s
Bit rate : 0 b/s
Count of elements : 10
Stream size : 263 Bytes (0%)
Title : Castilian
Language : Spanish
Default : No
Forced : No

Text #5
ID : 7
Format : UTF-8
Codec ID : S_TEXT/UTF8
Codec ID/Info : UTF-8 Plain Text
Duration : 54 min 20 s
Bit rate : 0 b/s
Count of elements : 10
Stream size : 259 Bytes (0%)
Title : Spanish
Language : Spanish
Default : No
Forced : No

Text #6
ID : 8
Format : UTF-8
Codec ID : S_TEXT/UTF8
Codec ID/Info : UTF-8 Plain Text
Duration : 54 min 20 s
Bit rate : 33 b/s
Count of elements : 589
Stream size : 13.2 KiB (0%)
Title : French (Canada)
Language : French
Default : No
Forced : No

Text #7
ID : 9
Format : UTF-8
Codec ID : S_TEXT/UTF8
Codec ID/Info : UTF-8 Plain Text
Duration : 54 min 20 s
Bit rate : 33 b/s
Count of elements : 582
Stream size : 13.2 KiB (0%)
Title : Brazilian Portuguese
Language : Portuguese
Default : No
Forced : No

Menu
00:00:00.000 : en:Amazon Original
00:00:05.000 : en:Casablanca, Morocco
00:02:36.000 : en:Opening Credits
00:04:28.000 : en:Night attack
00:07:13.000 : en:Monterrey, Mexico
00:09:48.000 : en:Manuel visits Chiquitita
00:12:20.000 : en:Create a wicked army
00:14:05.000 : en:Manuel and Chiquitita go to church
00:16:27.000 : en:Welcome to the brotherhood
00:20:21.000 : en:Scene 10
00:25:14.000 : en:Vampires become mule
00:30:35.000 : en:Dinner at restaurant
00:33:54.000 : en:Manuel comes to Chiquitita
00:40:58.000 : en:Mission at night
00:44:24.000 : en:Scene 15
00:49:33.000 : en:Scene 16
00:51:07.000 : en:At Chiquitita's house
00:54:10.000 : en:End Credits





ZeroZeroZero S01E06


ZeroZeroZero S01E06


ZeroZeroZero S01E06


ZeroZeroZero S01E06


ZeroZeroZero S01E06

All episodes