Featured TV Shows


ZeroZeroZero S01E07

Posted By: Tavaz
2160p (4k UHD) / WEBRip IMDb
ZeroZeroZero S01E07

ZeroZeroZero S01E07
WEBRip | MKV | 3840x1608 | English | H265 @ 13460 kbps | E-AC-3 @ 640 kbps | 55 min 46 s | 5.49 GiB
Subtitles: Español, Français, Português, English
Genre: Crime, Drama


Based on the book of the same name by bestselling author Roberto Saviano, ZeroZeroZero is an unforgettable exploration of the inner workings of the global cocaine trade.

be3d6726917014ff75e26373b23149d0.mkv (5.5 GB)



General
Unique ID : 97134858869431484972720118195427690958 (0x49137E4B23DC3A9E85313E1F7FF349CE)
Complete name : ./be3d6726917014ff75e26373b23149d0.mkv
Format : Matroska
Format version : Version 4 / Version 2
File size : 5.49 GiB
Duration : 55 min 46 s
Overall bit rate : 14.1 Mb/s
Encoded date : UTC 2020-03-11 15:48:30
Writing application : mkvmerge v43.0.0 ('The Quartermaster') 64-bit
Writing library : libebml v1.3.10 + libmatroska v1.5.2

Video
ID : 1
Format : HEVC
Format/Info : High Efficiency Video Coding
Format profile : Main 10@L5.1@High
Codec ID : V_MPEGH/ISO/HEVC
Duration : 55 min 46 s
Bit rate : 13.5 Mb/s
Width : 3 840 pixels
Height : 1 608 pixels
Display aspect ratio : 2.40:1
Frame rate mode : Constant
Frame rate : 25.000 FPS
Color space : YUV
Chroma subsampling : 4:2:0
Bit depth : 10 bits
Bits/(Pixel*Frame) : 0.087
Stream size : 5.24 GiB (95%)
Writing library : x265 3.2+38-fdbd4e4a2aff:[Windows][GCC 9.2.1][64 bit] 10bit
Encoding settings : cpuid=1111039 / frame-threads=4 / numa-pools=24 / wpp / no-pmode / no-pme / no-psnr / no-ssim / log-level=2 / input-csp=1 / input-res=3840x1608 / interlace=0 / total-frames=83671 / level-idc=51 / high-tier=1 / uhd-bd=0 / ref=5 / no-allow-non-conformance / repeat-headers / annexb / aud / hrd / info / hash=0 / no-temporal-layers / open-gop / min-keyint=25 / keyint=250 / gop-lookahead=0 / bframes=16 / b-adapt=2 / b-pyramid / bframe-bias=0 / rc-lookahead=40 / lookahead-slices=8 / scenecut=40 / hist-scenecut=0 / radl=0 / no-splice / no-intra-refresh / ctu=64 / min-cu-size=8 / no-rect / no-amp / max-tu-size=32 / tu-inter-depth=1 / tu-intra-depth=1 / limit-tu=0 / rdoq-level=0 / dynamic-rd=0.00 / no-ssim-rd / signhide / no-tskip / nr-intra=0 / nr-inter=0 / no-constrained-intra / strong-intra-smoothing / max-merge=3 / limit-refs=1 / no-limit-modes / me=3 / subme=5 / merange=57 / temporal-mvp / no-frame-dup / no-hme / weightp / weightb / no-analyze-src-pics / deblock=-3:-3 / no-sao / no-sao-non-deblock / rd=4 / selective-sao=0 / early-skip / rskip / no-fast-intra / no-tskip-fast / no-cu-lossless / b-intra / no-splitrd-skip / rdpenalty=0 / psy-rd=2.00 / psy-rdoq=0.00 / no-rd-refine / no-lossless / cbqpoffs=0 / crqpoffs=0 / rc=crf / crf=19.0 / qcomp=0.60 / qpstep=4 / stats-write=0 / stats-read=0 / vbv-maxrate=160000 / vbv-bufsize=160000 / vbv-init=0.9 / crf-max=0.0 / crf-min=0.0 / ipratio=1.25 / pbratio=1.15 / aq-mode=1 / aq-strength=0.80 / no-cutree / zone-count=0 / no-strict-cbr / qg-size=32 / no-rc-grain / qpmax=69 / qpmin=0 / no-const-vbv / sar=1 / overscan=0 / videoformat=5 / range=0 / colorprim=1 / transfer=1 / colormatrix=1 / chromaloc=0 / display-window=0 / cll=0,0 / min-luma=0 / max-luma=1023 / log2-max-poc-lsb=8 / vui-timing-info / vui-hrd-info / slices=1 / no-opt-qp-pps / no-opt-ref-list-length-pps / no-multi-pass-opt-rps / scenecut-bias=0.05 / hist-threshold=0.01 / no-opt-cu-delta-qp / no-aq-motion / no-hdr10 / no-hdr10-opt / no-dhdr10-opt / no-idr-recovery-sei / analysis-reuse-level=0 / analysis-save-reuse-level=0 / analysis-load-reuse-level=0 / scale-factor=0 / refine-intra=0 / refine-inter=0 / refine-mv=1 / refine-ctu-distortion=0 / no-limit-sao / ctu-info=0 / no-lowpass-dct / refine-analysis-type=0 / copy-pic=1 / max-ausize-factor=1.0 / no-dynamic-refine / no-single-sei / no-hevc-aq / no-svt / no-field / qp-adaptation-range=1.00 / no-scenecut-aware-qpconformance-window-offsets / right=0 / bottom=0
Default : Yes
Forced : No
Color range : Limited
Color primaries : BT.709
Transfer characteristics : BT.709
Matrix coefficients : BT.709

Audio
ID : 2
Format : E-AC-3
Format/Info : Enhanced Audio Coding 3
Format settings, Endianness : Big
Codec ID : A_EAC3
Duration : 55 min 46 s
Bit rate mode : Constant
Bit rate : 640 kb/s
Channel(s) : 6 channels
Channel positions : Front: L C R, Side: L R, LFE
Sampling rate : 48.0 kHz
Frame rate : 187.500 FPS (256 SPF)
Compression mode : Lossy
Stream size : 255 MiB (5%)
Language : English
Service kind : Complete Main
Default : Yes
Forced : No

Text #1
ID : 3
Format : UTF-8
Codec ID : S_TEXT/UTF8
Codec ID/Info : UTF-8 Plain Text
Duration : 53 min 3 s
Bit rate : 12 b/s
Count of elements : 198
Stream size : 4.67 KiB (0%)
Title : Forced
Language : English
Default : Yes
Forced : Yes

Text #2
ID : 4
Format : UTF-8
Codec ID : S_TEXT/UTF8
Codec ID/Info : UTF-8 Plain Text
Duration : 53 min 3 s
Bit rate : 24 b/s
Count of elements : 349
Stream size : 9.46 KiB (0%)
Language : English
Default : No
Forced : No

Text #3
ID : 5
Format : UTF-8
Codec ID : S_TEXT/UTF8
Codec ID/Info : UTF-8 Plain Text
Duration : 53 min 3 s
Bit rate : 24 b/s
Count of elements : 349
Stream size : 9.46 KiB (0%)
Title : SDH
Language : English
Default : No
Forced : No

Text #4
ID : 6
Format : UTF-8
Codec ID : S_TEXT/UTF8
Codec ID/Info : UTF-8 Plain Text
Duration : 55 min 21 s
Bit rate : 20 b/s
Count of elements : 382
Stream size : 8.11 KiB (0%)
Title : Latinoamérica
Language : Spanish
Default : No
Forced : No

Text #5
ID : 7
Format : UTF-8
Codec ID : S_TEXT/UTF8
Codec ID/Info : UTF-8 Plain Text
Duration : 55 min 21 s
Bit rate : 20 b/s
Count of elements : 381
Stream size : 8.22 KiB (0%)
Title : España
Language : Spanish
Default : No
Forced : No

Text #6
ID : 8
Format : UTF-8
Codec ID : S_TEXT/UTF8
Codec ID/Info : UTF-8 Plain Text
Duration : 55 min 21 s
Bit rate : 21 b/s
Count of elements : 386
Stream size : 8.65 KiB (0%)
Language : French
Default : No
Forced : No

Text #7
ID : 9
Format : UTF-8
Codec ID : S_TEXT/UTF8
Codec ID/Info : UTF-8 Plain Text
Duration : 55 min 21 s
Bit rate : 21 b/s
Count of elements : 381
Stream size : 8.53 KiB (0%)
Language : Portuguese
Default : No
Forced : No

Menu
00:00:00.000 : en:Amazon Original
00:00:05.000 : en:Calabria, Italy
00:04:37.000 : en:Opening Credits
00:06:29.000 : en:Lucia reaches out to Don Minu
00:11:18.000 : en:Betrayal
00:15:06.000 : en:Casablanca, Morocco
00:18:31.000 : en:Stefamo looks for Amina
00:22:11.000 : en:Emma and Chris are at hotel
00:29:24.000 : en:Chris feels something towards Amina
00:37:41.000 : en:Chris backs to the hotel
00:44:10.000 : en:Emma waits for the cargo
00:45:54.000 : en:Chris is in a car
00:48:34.000 : en:Chris is in the car
00:54:16.000 : en:End Credits





ZeroZeroZero S01E07


ZeroZeroZero S01E07


ZeroZeroZero S01E07


ZeroZeroZero S01E07


ZeroZeroZero S01E07

All episodes