Featured TV Shows


ZeroZeroZero S01E07

Posted By: Tavaz
720p (HD) / WEBRip IMDb
ZeroZeroZero S01E07

ZeroZeroZero S01E07
WEBRip | MKV | 1280x720 | Français / English | H264 @ 3400 kbps | AAC @ 128 kbps | 55 min 48 s | 1.40 GiB
Subtitles: Français
Genre: Crime, Drama


Based on the book of the same name by bestselling author Roberto Saviano, ZeroZeroZero is an unforgettable exploration of the inner workings of the global cocaine trade.

3126650e3a124fd3b3228d687eb9f41d.mkv (1.4 GB)



General
Unique ID : 182752572944856602763570275766948394905 (0x897CDD81FEF85B7FCA4568DC2444F799)
Complete name : ./3126650e3a124fd3b3228d687eb9f41d.mkv
Format : Matroska
Format version : Version 4 / Version 2
File size : 1.40 GiB
Duration : 55 min 48 s
Overall bit rate : 3 589 kb/s
Encoded date : UTC 2020-03-12 21:38:53
Writing application : mkvmerge v44.0.0 ('Domino') 64-bit
Writing library : libebml v1.3.10 + libmatroska v1.5.2

Video
ID : 1
Format : AVC
Format/Info : Advanced Video Codec
Format profile : High@L3.1
Format settings : CABAC / 2 Ref Frames
Format settings, CABAC : Yes
Format settings, RefFrames : 2 frames
Format settings, GOP : M=1, N=50
Codec ID : V_MPEG4/ISO/AVC
Duration : 55 min 48 s
Bit rate mode : Constant
Bit rate : 3 400 kb/s
Width : 1 280 pixels
Height : 720 pixels
Display aspect ratio : 16:9
Frame rate mode : Constant
Frame rate : 25.000 FPS
Color space : YUV
Chroma subsampling : 4:2:0
Bit depth : 8 bits
Scan type : Progressive
Bits/(Pixel*Frame) : 0.148
Stream size : 1.30 GiB (93%)
Default : Yes
Forced : No
Color range : Limited
Color primaries : BT.709
Transfer characteristics : BT.709
Matrix coefficients : BT.709

Audio #1
ID : 2
Format : AAC
Format/Info : Advanced Audio Codec
Format profile : LC
Codec ID : A_AAC-2
Duration : 55 min 48 s
Bit rate : 128 kb/s
Channel(s) : 2 channels
Channel positions : Front: L R
Sampling rate : 48.0 kHz
Frame rate : 46.875 FPS (1024 SPF)
Compression mode : Lossy
Stream size : 51.1 MiB (4%)
Title : French
Language : French
Default : Yes
Forced : No

Audio #2
ID : 3
Format : AAC
Format/Info : Advanced Audio Codec
Format profile : LC
Codec ID : A_AAC-2
Duration : 55 min 48 s
Bit rate : 128 kb/s
Channel(s) : 2 channels
Channel positions : Front: L R
Sampling rate : 48.0 kHz
Frame rate : 46.875 FPS (1024 SPF)
Compression mode : Lossy
Stream size : 51.1 MiB (4%)
Title : English
Language : English
Default : No
Forced : No

Text
ID : 4
Format : UTF-8
Codec ID : S_TEXT/UTF8
Codec ID/Info : UTF-8 Plain Text
Duration : 54 min 53 s
Bit rate : 21 b/s
Count of elements : 384
Stream size : 8.58 KiB (0%)
Title : French
Language : French
Default : No
Forced : No





ZeroZeroZero S01E07


ZeroZeroZero S01E07


ZeroZeroZero S01E07


ZeroZeroZero S01E07


ZeroZeroZero S01E07

All episodes