Index
# A B C D E F G H I J K L M N O P Q R S T U V W Y Z
Tags
Language
Tags

Featured TV Shows


American Horror Story S04E11

Posted By: Tavaz
1080p (FullHD) / BDRip IMDb
American Horror Story S04E11

American Horror Story S04E11
BDRip | MKV | 1920x1080 | English | H264 @ 8728 kbps | DTS @ 1509 kbps | 45 min 48 s | 3.27 GiB
Subtitles: English
Genre: Drama, Mystery


An anthology horror drama series centering on different characters and locations, including a house with a murderous past, an asylum, a witch coven, a freak show, a hotel, a farmhouse in Roanoke, a cult, the apocalypse and a summer camp.

b85be13d31054ddaa2484f5231576db4.mkv (3.3 GB)



General
Unique ID : 0 (0x0)
Complete name : ./b85be13d31054ddaa2484f5231576db4.mkv
Format : Matroska
Format version : Version 4 / Version 2
File size : 3.27 GiB
Duration : 45 min 48 s
Overall bit rate : 10.2 Mb/s
Encoded date : UTC 2010-02-22 21:41:29
Writing application : no_variable_data
Writing library : no_variable_data

Video
ID : 1
Format : AVC
Format/Info : Advanced Video Codec
Format profile : High@L4.1
Format settings : CABAC / 4 Ref Frames
Format settings, CABAC : Yes
Format settings, RefFrames : 4 frames
Codec ID : V_MPEG4/ISO/AVC
Duration : 45 min 48 s
Bit rate : 8 728 kb/s
Width : 1 920 pixels
Height : 1 080 pixels
Display aspect ratio : 16:9
Frame rate mode : Constant
Frame rate : 23.976 (24000/1001) FPS
Color space : YUV
Chroma subsampling : 4:2:0
Bit depth : 8 bits
Scan type : Progressive
Bits/(Pixel*Frame) : 0.176
Stream size : 2.73 GiB (83%)
Writing library : x264 core 148 r2597 e86f3a1
Encoding settings : cabac=1 / ref=4 / deblock=1:-3:-3 / analyse=0x3:0x113 / me=umh / subme=8 / psy=1 / psy_rd=1.00:0.00 / mixed_ref=1 / me_range=16 / chroma_me=1 / trellis=1 / 8x8dct=1 / cqm=0 / deadzone=21,11 / fast_pskip=1 / chroma_qp_offset=-2 / threads=24 / lookahead_threads=4 / sliced_threads=0 / nr=0 / decimate=1 / interlaced=0 / bluray_compat=0 / constrained_intra=0 / bframes=3 / b_pyramid=2 / b_adapt=2 / b_bias=0 / direct=3 / weightb=1 / open_gop=0 / weightp=2 / keyint=240 / keyint_min=24 / scenecut=40 / intra_refresh=0 / rc_lookahead=50 / rc=2pass / mbtree=1 / bitrate=8728 / ratetol=1.0 / qcomp=0.60 / qpmin=0 / qpmax=69 / qpstep=4 / cplxblur=20.0 / qblur=0.5 / ip_ratio=1.40 / aq=1:1.00
Language : English
Default : Yes
Forced : No
Statistics Tags Issue : no_variable_data 1970-01-01 00:00:00 / no_variable_data 2010-02-22 21:41:29
FromStats_BitRate : 8721011
FromStats_Duration : 00:45:48.788000000
FromStats_FrameCount : 65905
FromStats_StreamSize : 2996526605

Audio
ID : 2
Format : DTS
Format/Info : Digital Theater Systems
Mode : 16
Format settings, Endianness : Big
Codec ID : A_DTS
Duration : 45 min 48 s
Bit rate mode : Constant
Bit rate : 1 509 kb/s
Channel(s) : 6 channels
Channel positions : Front: L C R, Side: L R, LFE
Sampling rate : 48.0 kHz
Frame rate : 93.750 FPS (512 SPF)
Bit depth : 24 bits
Compression mode : Lossy
Stream size : 494 MiB (15%)
Language : English
Default : Yes
Forced : No
Statistics Tags Issue : no_variable_data 1970-01-01 00:00:00 / no_variable_data 2010-02-22 21:41:29
FromStats_BitRate : 1508999
FromStats_Duration : 00:45:48.790000000
FromStats_FrameCount : 257699
FromStats_StreamSize : 518490388

Text #1
ID : 3
Format : UTF-8
Codec ID : S_TEXT/UTF8
Codec ID/Info : UTF-8 Plain Text
Language : English
Default : No
Forced : No
Statistics Tags Issue : no_variable_data 1970-01-01 00:00:00 / no_variable_data 2010-02-22 21:41:29
FromStats_BitRate : 62
FromStats_Duration : 00:44:58.736000000
FromStats_FrameCount : 602
FromStats_StreamSize : 21022

Text #2
ID : 4
Format : UTF-8
Codec ID : S_TEXT/UTF8
Codec ID/Info : UTF-8 Plain Text
Title : SDH
Language : English
Default : No
Forced : No
Statistics Tags Issue : no_variable_data 1970-01-01 00:00:00 / no_variable_data 2010-02-22 21:41:29
FromStats_BitRate : 66
FromStats_Duration : 00:44:58.736000000
FromStats_FrameCount : 664
FromStats_StreamSize : 22567

Menu
00:00:00.000 : en:00:00:00.000
00:05:41.216 : en:00:05:41.216
00:10:19.202 : en:00:10:19.202
00:13:48.786 : en:00:13:48.786
00:18:09.922 : en:00:18:09.922
00:19:43.391 : en:00:19:43.391
00:25:05.671 : en:00:25:05.671
00:26:12.863 : en:00:26:12.863
00:32:03.130 : en:00:32:03.130
00:36:23.014 : en:00:36:23.014
00:37:52.645 : en:00:37:52.645
00:41:46.462 : en:00:41:46.462





American Horror Story S04E11


American Horror Story S04E11


American Horror Story S04E11


American Horror Story S04E11


American Horror Story S04E11

All episodes