Featured TV Shows


American Horror Story S08E08

Posted By: Tavaz
720p (HD) / WEBRip IMDb
American Horror Story S08E08

American Horror Story S08E08
WEBRip | MKV | 1280x720 | English | H264 @ 2641 kbps | AAC @ 126 kbps | 37 min 53 s | 751 MiB
Subtitles: English
Genre: Drama, Mystery

An anthology horror drama series centering on different characters and locations, including a house with a murderous past, an asylum, a witch coven, a freak show, a hotel, a farmhouse in Roanoke and a cult.

bac337322d1c450ea259a79c003c3eef.mkv (750.8 MB)



General
Unique ID : 208477966350454840330429799545646086990 (0x9CD765540FCAB9EE82250A8154C3FB4E)
Complete name : ./bac337322d1c450ea259a79c003c3eef.mkv
Format : Matroska
Format version : Version 4 / Version 2
File size : 751 MiB
Duration : 37 min 53 s
Overall bit rate : 2 770 kb/s
Encoded date : UTC 2018-11-01 02:42:05
Writing application : mkvmerge v13.0.0 ('The Juggler') 64bit
Writing library : libebml v1.3.4 + libmatroska v1.4.5

Video
ID : 1
Format : AVC
Format/Info : Advanced Video Codec
Format profile : High@L4.1
Format settings : CABAC / 5 Ref Frames
Format settings, CABAC : Yes
Format settings, RefFrames : 5 frames
Codec ID : V_MPEG4/ISO/AVC
Duration : 37 min 53 s
Bit rate : 2 641 kb/s
Width : 1 280 pixels
Height : 720 pixels
Display aspect ratio : 16:9
Frame rate mode : Constant
Frame rate : 23.976 (23976/1000) FPS
Color space : YUV
Chroma subsampling : 4:2:0
Bit depth : 8 bits
Scan type : Progressive
Bits/(Pixel*Frame) : 0.120
Stream size : 716 MiB (95%)
Writing library : x264 core 157 r2935 545de2f
Encoding settings : cabac=1 / ref=5 / deblock=1:-3:-3 / analyse=0x3:0x113 / me=hex / subme=8 / psy=1 / psy_rd=1.00:0.15 / mixed_ref=1 / me_range=16 / chroma_me=1 / trellis=2 / 8x8dct=1 / cqm=0 / deadzone=21,11 / fast_pskip=1 / chroma_qp_offset=-2 / threads=22 / lookahead_threads=3 / sliced_threads=0 / nr=0 / decimate=1 / interlaced=0 / bluray_compat=0 / constrained_intra=0 / bframes=3 / b_pyramid=2 / b_adapt=2 / b_bias=0 / direct=3 / weightb=1 / open_gop=0 / weightp=2 / keyint=240 / keyint_min=23 / scenecut=40 / intra_refresh=0 / rc_lookahead=50 / rc=crf / mbtree=1 / crf=18.0 / qcomp=0.60 / qpmin=0 / qpmax=69 / qpstep=4 / ip_ratio=1.40 / aq=1:0.80
Language : English
Default : Yes
Forced : No
Color range : Limited
Matrix coefficients : BT.709

Audio
ID : 2
Format : AAC
Format/Info : Advanced Audio Codec
Format profile : HE-AAC / LC
Format settings : Implicit
Codec ID : A_AAC-2
Duration : 37 min 53 s
Bit rate : 127 kb/s
Channel(s) : 2 channels
Channel positions : Front: L R
Sampling rate : 48.0 kHz / 24.0 kHz
Frame rate : 23.438 FPS (1024 SPF)
Compression mode : Lossy
Delay relative to video : 27 ms
Stream size : 34.4 MiB (5%)
Language : English
Default : Yes
Forced : No

Text
ID : 3
Format : UTF-8
Codec ID : S_TEXT/UTF8
Codec ID/Info : UTF-8 Plain Text
Duration : 36 min 52 s
Bit rate : 86 b/s
Count of elements : 617
Stream size : 23.2 KiB (0%)
Language : English
Default : No
Forced : No





American Horror Story S08E08


American Horror Story S08E08


American Horror Story S08E08


American Horror Story S08E08


American Horror Story S08E08

All episodes