Featured TV Shows


Good Girls S02E02

Posted By: Tavaz
SD / WEBRip IMDb
Good Girls S02E02

Good Girls S02E02
WEBRip | MKV | 960x540 | English | H264 @ 759 kbps | E-AC-3 @ 224 kbps | 42 min 28 s | 299 MiB
Subtitles: English
Genre: Comedy, Drama

Three "good girl" suburban wives and mothers suddenly find themselves in desperate circumstances and decide to stop playing it safe and risk everything to take their power back.

c47ffb5974974fb89b0dac864482b82a.mkv (299.3 MB)



General
Unique ID : 213194100961390552791952777505517572726 (0xA063B0B78E0F1053EA4905E54B579276)
Complete name : ./c47ffb5974974fb89b0dac864482b82a.mkv
Format : Matroska
Format version : Version 4 / Version 2
File size : 299 MiB
Duration : 42 min 28 s
Overall bit rate : 985 kb/s
Encoded date : UTC 2019-03-11 07:03:57
Writing application : mkvmerge v30.1.0 ('Forever And More') 64-bit
Writing library : libebml v1.3.6 + libmatroska v1.4.9

Video
ID : 1
Format : AVC
Format/Info : Advanced Video Codec
Format profile : High@L3.1
Format settings : CABAC / 5 Ref Frames
Format settings, CABAC : Yes
Format settings, RefFrames : 5 frames
Codec ID : V_MPEG4/ISO/AVC
Duration : 42 min 28 s
Bit rate : 759 kb/s
Width : 960 pixels
Height : 540 pixels
Display aspect ratio : 16:9
Frame rate mode : Constant
Frame rate : 23.976 (24000/1001) FPS
Color space : YUV
Chroma subsampling : 4:2:0
Bit depth : 8 bits
Scan type : Progressive
Bits/(Pixel*Frame) : 0.061
Stream size : 231 MiB (77%)
Language : English
Default : Yes
Forced : No
Color range : Limited
Color primaries : BT.709
Transfer characteristics : BT.709
Matrix coefficients : BT.709

Audio
ID : 2
Format : E-AC-3
Format/Info : Enhanced Audio Coding 3
Format settings, Endianness : Big
Codec ID : A_EAC3
Duration : 42 min 28 s
Bit rate mode : Constant
Bit rate : 224 kb/s
Channel(s) : 2 channels
Channel positions : Front: L R
Sampling rate : 48.0 kHz
Frame rate : 187.500 FPS (256 SPF)
Compression mode : Lossy
Stream size : 68.1 MiB (23%)
Language : English
Service kind : Complete Main
Default : Yes
Forced : No

Text
ID : 3
Format : UTF-8
Codec ID : S_TEXT/UTF8
Codec ID/Info : UTF-8 Plain Text
Duration : 42 min 9 s
Bit rate : 71 b/s
Count of elements : 751
Stream size : 22.2 KiB (0%)
Language : English
Default : No
Forced : No





Good Girls S02E02


Good Girls S02E02


Good Girls S02E02


Good Girls S02E02


Good Girls S02E02

All episodes