Featured TV Shows


Good Girls S02E03

Posted By: Tavaz
SD / WEBRip IMDb
Good Girls S02E03

Good Girls S02E03
WEBRip | MKV | 720x480 | English | H264 @ 484 kbps | E-AC-3 @ 224 kbps | 41 min 31 s | 211 MiB
Subtitles: English
Genre: Comedy, Drama

Three "good girl" suburban wives and mothers suddenly find themselves in desperate circumstances and decide to stop playing it safe and risk everything to take their power back.

f6576f8c7d4d493a9e0fa5658aaa5fca.mkv (210.8 MB)



General
Unique ID : 65365910740919328232308840339560894684 (0x312D043848682E5631F1B119127690DC)
Complete name : ./f6576f8c7d4d493a9e0fa5658aaa5fca.mkv
Format : Matroska
Format version : Version 4 / Version 2
File size : 211 MiB
Duration : 41 min 31 s
Overall bit rate : 710 kb/s
Encoded date : UTC 2019-03-18 07:04:13
Writing application : mkvmerge v31.0.0 ('Dolores In A Shoestand') 64-bit
Writing library : libebml v1.3.6 + libmatroska v1.4.9

Video
ID : 1
Format : AVC
Format/Info : Advanced Video Codec
Format profile : Main@L3
Format settings : CABAC / 5 Ref Frames
Format settings, CABAC : Yes
Format settings, RefFrames : 5 frames
Codec ID : V_MPEG4/ISO/AVC
Duration : 41 min 31 s
Bit rate : 484 kb/s
Width : 720 pixels
Height : 480 pixels
Display aspect ratio : 16:9
Frame rate mode : Constant
Frame rate : 23.976 (24000/1001) FPS
Color space : YUV
Chroma subsampling : 4:2:0
Bit depth : 8 bits
Scan type : Progressive
Bits/(Pixel*Frame) : 0.058
Stream size : 144 MiB (68%)
Language : English
Default : Yes
Forced : No
Color range : Limited
Color primaries : BT.709
Transfer characteristics : BT.709
Matrix coefficients : BT.709

Audio
ID : 2
Format : E-AC-3
Format/Info : Enhanced Audio Coding 3
Format settings, Endianness : Big
Codec ID : A_EAC3
Duration : 41 min 31 s
Bit rate mode : Constant
Bit rate : 224 kb/s
Channel(s) : 2 channels
Channel positions : Front: L R
Sampling rate : 48.0 kHz
Frame rate : 187.500 FPS (256 SPF)
Compression mode : Lossy
Stream size : 66.5 MiB (32%)
Language : English
Service kind : Complete Main
Default : Yes
Forced : No

Text
ID : 3
Format : UTF-8
Codec ID : S_TEXT/UTF8
Codec ID/Info : UTF-8 Plain Text
Duration : 40 min 11 s
Bit rate : 64 b/s
Count of elements : 748
Stream size : 18.9 KiB (0%)
Language : English
Default : No
Forced : No





Good Girls S02E03


Good Girls S02E03


Good Girls S02E03


Good Girls S02E03


Good Girls S02E03

All episodes