Featured TV Shows


Good Girls S02E04

Posted By: Tavaz
SD / WEBRip IMDb
Good Girls S02E04

Good Girls S02E04
WEBRip | MKV | 704x396 | English | H264 @ 659 kbps | AAC @ 63 kbps | 43 min 0 s | 223 MiB
Genre: Comedy, Drama

Three "good girl" suburban wives and mothers suddenly find themselves in desperate circumstances and decide to stop playing it safe and risk everything to take their power back.

c96e8a651e9c494b906d642e72d38982.mkv (223.1 MB)



General
Unique ID : 48223058266117292480527761064847922423 (0x24476C5657633F242FF6B21C5B8AD4F7)
Complete name : ./c96e8a651e9c494b906d642e72d38982.mkv
Format : Matroska
Format version : Version 4 / Version 2
File size : 223 MiB
Duration : 43 min 0 s
Overall bit rate : 725 kb/s
Encoded date : UTC 2019-03-25 09:01:04
Writing application : mkvmerge v31.0.0 ('Dolores In A Shoestand') 64-bit
Writing library : libebml v1.3.6 + libmatroska v1.4.9

Video
ID : 1
Format : AVC
Format/Info : Advanced Video Codec
Format profile : High@L3
Format settings : CABAC / 5 Ref Frames
Format settings, CABAC : Yes
Format settings, RefFrames : 5 frames
Codec ID : V_MPEG4/ISO/AVC
Duration : 43 min 0 s
Bit rate : 659 kb/s
Width : 704 pixels
Height : 396 pixels
Display aspect ratio : 16:9
Frame rate mode : Constant
Frame rate : 23.976 (24000/1001) FPS
Color space : YUV
Chroma subsampling : 4:2:0
Bit depth : 8 bits
Scan type : Progressive
Bits/(Pixel*Frame) : 0.099
Stream size : 203 MiB (91%)
Language : English
Default : Yes
Forced : No

Audio
ID : 2
Format : AAC
Format/Info : Advanced Audio Codec
Format profile : HE-AAC / LC
Format settings : Explicit
Codec ID : A_AAC-2
Duration : 43 min 0 s
Bit rate : 64.0 kb/s
Channel(s) : 2 channels
Channel positions : Front: L R
Sampling rate : 48.0 kHz / 24.0 kHz
Frame rate : 23.438 FPS (1024 SPF)
Compression mode : Lossy
Stream size : 19.7 MiB (9%)
Default : Yes
Forced : No





Good Girls S02E04


Good Girls S02E04


Good Girls S02E04


Good Girls S02E04


Good Girls S02E04

All episodes