Featured TV Shows


Good Girls S02E06

Posted By: Tavaz
SD / HDTV IMDb
Good Girls S02E06

Good Girls S02E06
HDTV | MKV | 720x404 | English | H264 @ 739 kbps | AAC @ 105 kbps | 40 min 21 s | 245 MiB
Subtitles: English
Genre: Comedy, Drama


Three "good girl" suburban wives and mothers suddenly find themselves in desperate circumstances and decide to stop playing it safe and risk everything to take their power back.

ab6e798092e144e7a7b154da0315e5fc.mkv (244.7 MB)



General
Unique ID : 101282087135725681241033788814954610988 (0x4C32386F0C8AB17761B22F446284412C)
Complete name : ./ab6e798092e144e7a7b154da0315e5fc.mkv
Format : Matroska
Format version : Version 4 / Version 2
File size : 245 MiB
Duration : 40 min 21 s
Overall bit rate : 848 kb/s
Movie name : Good.Girls.S02E06.HDTV.x264-LucidTV
Encoded date : UTC 2019-04-08 03:43:29
Writing application : mkvmerge v24.0.0 ('Beyond The Pale') 64-bit
Writing library : libebml v1.3.6 + libmatroska v1.4.9

Video
ID : 1
Format : AVC
Format/Info : Advanced Video Codec
Format profile : High@L3.1
Format settings : CABAC / 5 Ref Frames
Format settings, CABAC : Yes
Format settings, RefFrames : 5 frames
Codec ID : V_MPEG4/ISO/AVC
Duration : 40 min 21 s
Bit rate : 740 kb/s
Width : 720 pixels
Height : 404 pixels
Display aspect ratio : 16:9
Frame rate mode : Constant
Frame rate : 23.976 (24000/1001) FPS
Color space : YUV
Chroma subsampling : 4:2:0
Bit depth : 8 bits
Scan type : Progressive
Bits/(Pixel*Frame) : 0.106
Stream size : 214 MiB (87%)
Writing library : x264 core 157 r2969 d4099dd
Encoding settings : cabac=1 / ref=5 / deblock=1:0:0 / analyse=0x3:0x113 / me=hex / subme=8 / psy=1 / psy_rd=1.00:0.00 / mixed_ref=1 / me_range=16 / chroma_me=1 / trellis=2 / 8x8dct=1 / cqm=0 / deadzone=21,11 / fast_pskip=1 / chroma_qp_offset=-2 / threads=13 / lookahead_threads=2 / sliced_threads=0 / nr=0 / decimate=1 / interlaced=0 / bluray_compat=0 / constrained_intra=0 / bframes=3 / b_pyramid=2 / b_adapt=1 / b_bias=0 / direct=3 / weightb=1 / open_gop=0 / weightp=2 / keyint=250 / keyint_min=23 / scenecut=40 / intra_refresh=0 / rc_lookahead=50 / rc=crf / mbtree=1 / crf=19.0 / qcomp=0.60 / qpmin=0 / qpmax=69 / qpstep=4 / ip_ratio=1.40 / aq=1:1.00
Language : English
Default : Yes
Forced : No
Color range : Limited
Matrix coefficients : BT.709

Audio
ID : 2
Format : AAC
Format/Info : Advanced Audio Codec
Format profile : LC
Codec ID : A_AAC-2
Duration : 40 min 21 s
Bit rate : 106 kb/s
Channel(s) : 2 channels
Channel positions : Front: L R
Sampling rate : 48.0 kHz
Frame rate : 46.875 FPS (1024 SPF)
Compression mode : Lossy
Delay relative to video : 20 ms
Stream size : 30.5 MiB (12%)
Language : English
Default : Yes
Forced : No

Text
ID : 3
Format : UTF-8
Codec ID : S_TEXT/UTF8
Codec ID/Info : UTF-8 Plain Text
Duration : 40 min 17 s
Bit rate : 122 b/s
Count of elements : 841
Stream size : 36.1 KiB (0%)
Language : English
Default : No
Forced : No





Good Girls S02E06


Good Girls S02E06


Good Girls S02E06


Good Girls S02E06


Good Girls S02E06

All episodes