Index
# A B C D E F G H I J K L M N O P Q R S T U V W Y Z
Tags
Language
Tags

Featured TV Shows


Jean-Claude Van Johnson S01E01

Posted By: Tavaz
720p (HD) / WEBRip IMDb
Jean-Claude Van Johnson S01E01

Jean-Claude Van Johnson S01E01
WEBRip | MKV | 1280x528 | French | H264 @ 1605 kbps | E-AC-3 @ 640 kbps | 32 min 32 s | 523 MiB
Subtitles: French, English
Genre: Comedy

Jean-Claude Van Damme is a global martial arts & film sensation, also operating under the simple alias of "Johnson" as the world's best undercover private contractor. Retired for years, a chance encounter with a lost love brings him back to the game. This time, he'll be deadlier than ever. Probably.

jean-claude.van.johnson.s01e04.french.720p.web.h264-cielos.mkv (523.3 MB)
jean-claude.van.johnson.s01e01.french.720p.web.h264-cielos.mkv (490.3 MB)
jean-claude.van.johnson.s01e03.french.720p.web.h264-cielos.mkv (505.1 MB)
jean-claude.van.johnson.s01e02.french.720p.web.h264-cielos.mkv (493.8 MB)
jean-claude.van.johnson.s01e05.french.720p.web.h264-cielos.mkv (422.7 MB)
jean-claude.van.johnson.s01e06.final.french.720p.web.h264-cielos.mkv (502.3 MB)



General
Unique ID : 248654784408787748069877045521682772381 (0xBB112B650F5E15BB996288DBA033B19D)
Complete name : ./jean-claude.van.johnson.s01e04.french.720p.web.h264-cielos.mkv
Format : Matroska
Format version : Version 4 / Version 2
File size : 523 MiB
Duration : 32 min 32 s
Overall bit rate mode : Variable
Overall bit rate : 2 248 kb/s
Encoded date : UTC 2017-12-15 00:37:17
Writing application : mkvmerge v18.0.0 ('Apricity') 64-bit
Writing library : libebml v1.3.5 + libmatroska v1.4.8

Video
ID : 1
Format : AVC
Format/Info : Advanced Video Codec
Format profile : High@L3.1
Format settings : CABAC / 5 Ref Frames
Format settings, CABAC : Yes
Format settings, RefFrames : 5 frames
Codec ID : V_MPEG4/ISO/AVC
Duration : 32 min 32 s
Bit rate mode : Variable
Bit rate : 1 606 kb/s
Maximum bit rate : 4 500 kb/s
Width : 1 280 pixels
Height : 528 pixels
Display aspect ratio : 2.40:1
Frame rate mode : Constant
Frame rate : 23.976 (24000/1001) FPS
Color space : YUV
Chroma subsampling : 4:2:0
Bit depth : 8 bits
Scan type : Progressive
Bits/(Pixel*Frame) : 0.099
Stream size : 374 MiB (71%)
Default : Yes
Forced : No
Color range : Limited
Color primaries : BT.709
Transfer characteristics : BT.709
Matrix coefficients : BT.709

Audio
ID : 2
Format : E-AC-3
Format/Info : Enhanced Audio Coding 3
Format settings, Endianness : Big
Codec ID : A_EAC3
Duration : 32 min 32 s
Bit rate mode : Constant
Bit rate : 640 kb/s
Channel(s) : 6 channels
Channel positions : Front: L C R, Side: L R, LFE
Sampling rate : 48.0 kHz
Frame rate : 187.500 FPS (256 SPF)
Compression mode : Lossy
Stream size : 149 MiB (28%)
Title : French
Language : French
Service kind : Complete Main
Default : Yes
Forced : No

Text #1
ID : 3
Format : UTF-8
Codec ID : S_TEXT/UTF8
Codec ID/Info : UTF-8 Plain Text
Duration : 9 min 25 s
Bit rate : 4 b/s
Count of elements : 14
Stream size : 321 Bytes (0%)
Title : French (Forced)
Language : French
Default : Yes
Forced : Yes

Text #2
ID : 4
Format : UTF-8
Codec ID : S_TEXT/UTF8
Codec ID/Info : UTF-8 Plain Text
Duration : 30 min 21 s
Bit rate : 31 b/s
Count of elements : 279
Stream size : 7.03 KiB (0%)
Title : French
Language : French
Default : No
Forced : No

Text #3
ID : 5
Format : UTF-8
Codec ID : S_TEXT/UTF8
Codec ID/Info : UTF-8 Plain Text
Duration : 32 min 13 s
Bit rate : 43 b/s
Count of elements : 492
Stream size : 10.2 KiB (0%)
Title : English
Language : English
Default : No
Forced : No





Jean-Claude Van Johnson S01E01


Jean-Claude Van Johnson S01E01


Jean-Claude Van Johnson S01E01


Jean-Claude Van Johnson S01E01


Jean-Claude Van Johnson S01E01

All episodes