Index
# A B C D E F G H I J K L M N O P Q R S T U V W Y Z
Tags
Language
Tags

Featured TV Shows


Jean-Claude Van Johnson S01E01

Posted By:
SD / WEBRip IMDb
Jean-Claude Van Johnson S01E01

Jean-Claude Van Johnson S01E01
WEBRip | AVI | 720x404 | MP4V-ES @ 968 kbps | MPEG Audio @ 128 kbps | 33 min 43 s | 267 MiB
Genre: Comedy

Jean-Claude Van Damme is a global martial arts & film sensation, also operating under the simple alias of "Johnson" as the world's best undercover private contractor. Retired for years, a chance encounter with a lost love brings him back to the game. This time, he'll be deadlier than ever. Probably.

jean-claude.van.johnson.s01e03.french.WEB.XviD-EXTREME.avi (217.5 MB)
jean-claude.van.johnson.s01e04.french.WEB.XviD-EXTREME.avi (258.2 MB)
jean-claude.van.johnson.s01e05.french.WEB.XviD-EXTREME.avi (221.5 MB)
jean-claude.van.johnson.s01e01.french.WEB.XviD-EXTREME.avi (230.8 MB)
jean-claude.van.johnson.s01e06.final.french.WEB.XviD-EXTREME.avi (267.5 MB)
jean-claude.van.johnson.s01e02.french.WEB.XviD-EXTREME.avi (231.0 MB)



General
Complete name : ./jean-claude.van.johnson.s01e06.final.french.WEB.XviD-EXTREME.avi
Format : AVI
Format/Info : Audio Video Interleave
File size : 267 MiB
Duration : 33 min 43 s
Overall bit rate : 1 109 kb/s
Writing application : Lavf54.63.104

Video
ID : 0
Format : MPEG-4 Visual
Format profile : Simple@L3
Format settings, BVOP : No
Format settings, QPel : No
Format settings, GMC : No warppoints
Format settings, Matrix : Default (H.263)
Codec ID : XVID
Codec ID/Hint : XviD
Duration : 33 min 43 s
Bit rate : 969 kb/s
Width : 720 pixels
Height : 404 pixels
Display aspect ratio : 16:9
Frame rate : 23.976 (24000/1001) FPS
Original frame rate : 23.976 (23976/1000) FPS
Color space : YUV
Chroma subsampling : 4:2:0
Bit depth : 8 bits
Scan type : Progressive
Compression mode : Lossy
Bits/(Pixel*Frame) : 0.139
Stream size : 234 MiB (87%)
Writing library : XviD 64

Audio
ID : 1
Format : MPEG Audio
Format version : Version 1
Format profile : Layer 3
Format settings : Joint stereo
Mode : Joint stereo
Codec ID : 55
Codec ID/Hint : MP3
Duration : 33 min 43 s
Bit rate mode : Constant
Bit rate : 128 kb/s
Channel(s) : 2 channels
Sampling rate : 44.1 kHz
Compression mode : Lossy
Stream size : 30.9 MiB (12%)
Alignment : Aligned on interleaves
Interleave, duration : 26 ms (0.63 video frame)
Interleave, preload duration : 26 ms
Title : French





Jean-Claude Van Johnson S01E01


Jean-Claude Van Johnson S01E01


Jean-Claude Van Johnson S01E01


Jean-Claude Van Johnson S01E01


Jean-Claude Van Johnson S01E01

All episodes