Featured TV Shows


Good Girls S01E05

Posted By: Tavaz
Good Girls S01E05

Good Girls S01E05
MKV | 640x480 | H264 @ 328 kbps | MPEG Audio @ 128 kbps | 41 min 56 s | 140 MiB
Genre: Comedy, Drama

Three "good girl" suburban wives and mothers suddenly find themselves in desperate circumstances and decide to stop playing it safe and risk everything to take their power back.

Good.Girls.S01E05.iNTERNAL.480p.x264-mSD.mkv (139.7 MB)



General
Unique ID : 70220975809252548118877504757007499691 (0x34D41168ADA0DC6A231E8CD27CBDC1AB)
Complete name : ./Good.Girls.S01E05.iNTERNAL.480p.x264-mSD.mkv
Format : Matroska
Format version : Version 4 / Version 2
File size : 140 MiB
Duration : 41 min 56 s
Overall bit rate : 466 kb/s
Writing application : Lavf57.79.100
Writing library : Lavf57.79.100
ErrorDetectionType : Per level 1

Video
ID : 1
Format : AVC
Format/Info : Advanced Video Codec
Format profile : High@L3
Format settings : CABAC / 4 Ref Frames
Format settings, CABAC : Yes
Format settings, RefFrames : 4 frames
Codec ID : V_MPEG4/ISO/AVC
Duration : 41 min 56 s
Bit rate : 329 kb/s
Width : 640 pixels
Height : 480 pixels
Display aspect ratio : 16:9
Frame rate mode : Constant
Frame rate : 23.976 (24000/1001) FPS
Color space : YUV
Chroma subsampling : 4:2:0
Bit depth : 8 bits
Scan type : Progressive
Bits/(Pixel*Frame) : 0.045
Stream size : 98.6 MiB (71%)
Writing library : x264 core 152 r2851 ba24899
Encoding settings : cabac=1 / ref=1 / deblock=1:0:0 / analyse=0x3:0x113 / me=hex / subme=2 / psy=1 / psy_rd=1.00:0.00 / mixed_ref=0 / me_range=16 / chroma_me=1 / trellis=0 / 8x8dct=1 / cqm=0 / deadzone=21,11 / fast_pskip=1 / chroma_qp_offset=0 / threads=12 / lookahead_threads=3 / sliced_threads=0 / nr=0 / decimate=1 / interlaced=0 / bluray_compat=0 / constrained_intra=0 / bframes=3 / b_pyramid=2 / b_adapt=1 / b_bias=0 / direct=1 / weightb=1 / open_gop=0 / weightp=1 / keyint=250 / keyint_min=23 / scenecut=40 / intra_refresh=0 / rc_lookahead=10 / rc=crf / mbtree=1 / crf=23.0 / qcomp=0.60 / qpmin=0 / qpmax=69 / qpstep=4 / ip_ratio=1.40 / aq=1:1.00
Default : Yes
Forced : No
Statistics Tags Issue : mkvmerge v21.0.0 ('Tardigrades Will Inherit The Earth') 64-bit 2018-03-27 09:01:43 / Lavf57.79.100
FromStats_BitRate : 2560724
FromStats_Duration : 00:41:56.141000000
FromStats_FrameCount : 60327
FromStats_StreamSize : 805392027

Audio
ID : 2
Format : MPEG Audio
Format version : Version 1
Format profile : Layer 3
Format settings : Joint stereo / MS Stereo
Mode : Joint stereo
Mode extension : MS Stereo
Codec ID : A_MPEG/L3
Codec ID/Hint : MP3
Duration : 41 min 56 s
Bit rate mode : Constant
Bit rate : 128 kb/s
Channel(s) : 2 channels
Sampling rate : 44.1 kHz
Compression mode : Lossy
Stream size : 38.4 MiB (27%)
Writing library : LAME3.99.5
Default : Yes
Forced : No
Statistics Tags Issue : mkvmerge v21.0.0 ('Tardigrades Will Inherit The Earth') 64-bit 2018-03-27 09:01:43 / Lavf57.79.100
FromStats_BitRate : 95926
FromStats_Duration : 00:41:56.162000000
FromStats_FrameCount : 108362
FromStats_StreamSize : 30170909





Good Girls S01E05


Good Girls S01E05


Good Girls S01E05


Good Girls S01E05


Good Girls S01E05

All episodes