Featured TV Shows


The War of the Worlds S02E03

Posted By: Tavaz
The War of the Worlds S02E03

The War of the Worlds S02E03
MKV | 1916x890 | Nederlands | H264 @ 4182 kbps | MPEG Audio @ 192 kbps | 48 min 35 s | 1.51 GiB
Genre: Drama


In Edwardian England, George and his partner Amy attempt to defy society and start a life together as they face the escalating terror of an alien invasion, fighting for their lives against an enemy beyond their comprehension.

9ab13b228943cad46841b660771710b7.mkv (1.5 GB)



General
Unique ID : 229617121084496133368782818699797220972 (0xACBEA61FE3283CE6BAB0540955D24E6C)
Complete name : ./9ab13b228943cad46841b660771710b7.mkv
Format : Matroska
Format version : Version 4 / Version 2
File size : 1.51 GiB
Duration : 48 min 35 s
Overall bit rate : 4 463 kb/s
Encoded date : UTC 2021-05-31 11:11:44
Writing application : mkvmerge v6.8.0 ('Theme for Great Cities') 32bit built on Mar 2 2014 21:27:07
Writing library : libebml v1.3.0 + libmatroska v1.4.1

Video
ID : 1
Format : AVC
Format/Info : Advanced Video Codec
Format profile : High@L4.1
Format settings : CABAC / 4 Ref Frames
Format settings, CABAC : Yes
Format settings, RefFrames : 4 frames
Codec ID : V_MPEG4/ISO/AVC
Duration : 48 min 35 s
Bit rate : 4 183 kb/s
Width : 1 916 pixels
Height : 890 pixels
Display aspect ratio : 2.2:1
Frame rate mode : Constant
Frame rate : 25.000 FPS
Color space : YUV
Chroma subsampling : 4:2:0
Bit depth : 8 bits
Scan type : Progressive
Bits/(Pixel*Frame) : 0.098
Stream size : 1.42 GiB (94%)
Writing library : x264 core 161 r3048 b86ae3c
Encoding settings : cabac=1 / ref=4 / deblock=1:0:0 / analyse=0x3:0x113 / me=umh / subme=8 / psy=1 / psy_rd=1.00:0.00 / mixed_ref=1 / me_range=16 / chroma_me=1 / trellis=2 / 8x8dct=1 / cqm=0 / deadzone=21,11 / fast_pskip=1 / chroma_qp_offset=-2 / threads=24 / lookahead_threads=4 / sliced_threads=0 / nr=0 / decimate=1 / interlaced=0 / bluray_compat=0 / constrained_intra=0 / bframes=5 / b_pyramid=2 / b_adapt=1 / b_bias=0 / direct=3 / weightb=1 / open_gop=0 / weightp=2 / keyint=250 / keyint_min=24 / scenecut=40 / intra_refresh=0 / rc_lookahead=50 / rc=crf / mbtree=1 / crf=17.0 / qcomp=0.60 / qpmin=0 / qpmax=69 / qpstep=4 / ip_ratio=1.40 / aq=1:1.00
Default : Yes
Forced : No

Audio
ID : 2
Format : MPEG Audio
Format version : Version 1
Format profile : Layer 2
Codec ID : A_MPEG/L2
Codec ID/Hint : MP2
Duration : 48 min 35 s
Bit rate mode : Constant
Bit rate : 192 kb/s
Channel(s) : 2 channels
Sampling rate : 48.0 kHz
Compression mode : Lossy
Stream size : 66.7 MiB (4%)
Language : Dutch
Default : Yes
Forced : No





The War of the Worlds S02E03


The War of the Worlds S02E03


The War of the Worlds S02E03


The War of the Worlds S02E03


The War of the Worlds S02E03

All episodes