Subcategories

The Beatles - Dr. Ebbetts's US Stereo Albums Collection (1964-1970)

Posted By: v3122
The Beatles - Dr. Ebbetts's US Stereo Albums Collection (1964-1970)

The Beatles - Dr. Ebbetts's US Stereo Albums Collection (1964-1970)
CDR | Flac(Image) + Cue, no Log | MP3 CBR 320Kbps
19CD | Dr. Ebbetts | ~ 3781 or 1643 Mb | Artwork(jpg) -> 63 Mb
Classic Rock

~ Meet The Beatles! [ST 2047], The Beatles' Second Album [ST 2080], A Hard Day's Night [UAS 6366], Something New [ST 2108], Beatles '65 [ST 2228, The Early Beatles [ST 2309], Beatles VI [ST 2358], Help! [SMAS 2386], Rubber Soul [ST 2442], Yesterday and Today [ST 2553], Revolver [ST 2576], Sgt. Pepper's [SMAS 2653], Magical Mystery Tour [SMAL 2835], The White Album [SWBO 101], Yellow Submarine [SW 153], Abbey Road [SO 383], Hey Jude [SW 385], Let it be [AR 34001] ~

Dr. Ebbets was a needledropper (a person who rips near mint/mint condition or unplayed vinyl records) who was famous in the bootleg/audiophile communities for his Beatles releases, which are regarded by some as being the best sounding versions of those albums.

He retired in 2009 due to the upcoming release of The Beatles, but returned in 2010 to release four new titles to his most dedicated customers.

~ discogs
The Beatles - Dr. Ebbetts's US Stereo Albums Collection (1964-1970):

The Beatles - Dr. Ebbetts's US Stereo Albums Collection (1964-1970)

Tracklist CD01. 1964 - Meet The Beatles! [ST 2047]:

01. I Want To Hold Your Hand [2:29]
02. I Saw Her Standing There [2:54]
03. This Boy [2:15]
04. It Won't Be Long [2:13]
05. All I've Got To Do [2:03]
06. All My Loving [2:09]
07. Don't Bother Me [2:29]
08. Little Child [1:46]
09. Till There Was You [2:14]
10. Hold Me Tight [2:32]
11. I Wanna Be Your Man [2:01]
12. Not A Second Time [2:06]

[CUETools log; Date: 28.02.2020 9:11:21; Version: 2.1.4]
[AccurateRip ID: 000c7efb-00736f41-a1065f0c] disk not present in database.

Track Peak [ CRC32 ] [W/O NULL]
– 99,8 [0A01DA07] [FC028535]
01 99,8 [D5E01170] [F023804F]
02 98,9 [FA1B682A] [A3561F83]
03 98,2 [3FB8FF8B] [619C2C8B]
04 98,9 [F8E23ECE] [C7A17A83]
05 98,7 [A4BB472B] [44804BA6]
06 99,1 [A3333DC0] [1ED953E1]
07 99,4 [34081FC6] [C8200140]
08 98,8 [30035D0C] [6AC1A4B3]
09 99,2 [01086917] [95B30390]
10 96,3 [290E0261] [9AC86683]
11 99,2 [08EB8D1A] [DD75EBF3]
12 91,9 [4A6133A9] [E3F15A53]


The Beatles - Dr. Ebbetts's US Stereo Albums Collection (1964-1970)

Tracklist CD02. 1964 - The Beatles' Second Album [ST 2080]:

01. Roll Over Beethoven [2:47]
02. Thank You Girl [2:05]
03. You Really Got A Hold On Me [3:03]
04. Devil In Her Heart [2:28]
05. Money (That's What I Want) [2:51]
06. You Can't Do That [2:39]
07. Long Tall Sally [2:05]
08. I Call Your Name [2:10]
09. Please Mister Postman [2:37]
10. I'll Get You [2:08]
11. She Loves You [2:23]

[CUETools log; Date: 28.02.2020 9:12:41; Version: 2.1.4]
[AccurateRip ID: 000b8d52-00637ef7-9d06650b] found.
Track [ CRC | V2 ] Status
01 [beff1f81|ea58dc22] (0+1/2) Accurately ripped
02 [34315841|848e334a] (0+1/2) Accurately ripped
03 [5d1df9b2|95b03f6f] (0+1/2) Accurately ripped
04 [cd4b10cc|6ddbe31b] (0+1/2) Accurately ripped
05 [7a79b45d|5e755033] (0+1/2) Accurately ripped
06 [25fc4e9f|87ce387a] (0+1/2) Accurately ripped
07 [c9a3f44e|fa409320] (0+1/2) Accurately ripped
08 [c1ccf676|52ec71a4] (0+1/2) Accurately ripped
09 [ce466e4b|68add7a0] (0+1/2) Accurately ripped
10 [dc37145d|92a4437e] (0+1/2) Accurately ripped
11 [8fcb5e29|ee2f3914] (0+1/2) Accurately ripped

Track Peak [ CRC32 ] [W/O NULL]
– 100,0 [F266A782] [A51302D0]
01 98,7 [124EACCE] [006F0032]
02 100,0 [274639CF] [5E4F0857]
03 98,3 [77B62E19] [2846C268]
04 98,3 [8C9D77A6] [5E79255F]
05 96,9 [8CB919AE] [F53C0C75]
06 98,6 [1B295054] [3C518FE6]
07 99,2 [16D3496C] [8613EC8F]
08 94,9 [2876F3E8] [F05118B3]
09 94,0 [A50004C5] [5510B88C]
10 100,0 [016BF166] [BB2FB7BB]
11 98,4 [30FEC838] [CE390DF0]


The Beatles - Dr. Ebbetts's US Stereo Albums Collection (1964-1970)

Tracklist CD03. 1964 - A Hard Day's Night [UAS 6366]:

01. A Hard Day's Night [2:33]
02. Tell Me Why [2:10]
03. I'll Cry Instead [2:09]
04. I Should Have Known Better (Instrumental) [2:10]
05. I'm Happy Just To Dance With You [1:59]
06. And I Love Her (Instrumental) [3:47]
07. I Should Have Known Better [2:42]
08. If I Fell [2:24]
09. And I Love Her [2:32]
10. Ringo's Theme (This Boy) (Instrumental) [3:11]
11. Can't Buy Me Love [2:15]
12. A Hard Day's Night (Instrumental) [2:07]

[CUETools log; Date: 28.02.2020 9:14:12; Version: 2.1.4]
[AccurateRip ID: 000d32fd-007c4ded-a007050c] found.
Track [ CRC | V2 ] Status
01 [cf8536dc|3b77fd56] (0+0/1) No match
02 [fc859ab9|203aa1cf] (0+0/1) No match
03 [a2a101b6|df4869ae] (0+0/1) No match
04 [8a289078|7fa12d32] (0+0/1) No match
05 [7a882375|5b999cab] (0+0/1) No match
06 [910f7804|b3b2db30] (0+0/1) No match
07 [d2886eb2|c7f7dac0] (0+0/1) No match
08 [9a87d74a|538be6e3] (0+0/1) No match
09 [0d5794d9|a746bea8] (0+0/1) No match
10 [fb3cc010|32851c62] (0+0/1) No match
11 [98fa327a|690df0d8] (0+0/1) No match
12 [756cd6f2|f5434516] (0+0/1) No match
Offsetted by 120:
01 [24ee53eb] (1/1) Accurately ripped
02 [e44f51bd] (1/1) Accurately ripped
03 [c32b02cd] (1/1) Accurately ripped
04 [3885e67e] (1/1) Accurately ripped
05 [ac3f0fb7] (1/1) Accurately ripped
06 [6286a4f5] (1/1) Accurately ripped
07 [0491665c] (1/1) Accurately ripped
08 [88f68cf9] (1/1) Accurately ripped
09 [b207ea5f] (1/1) Accurately ripped
10 [f9e05172] (1/1) Accurately ripped
11 [614c7e69] (1/1) Accurately ripped
12 [7671640d] (1/1) Accurately ripped

Track Peak [ CRC32 ] [W/O NULL]
– 100,0 [47963823] [F1672842]
01 100,0 [8E5B6075] [63F45AB4]
02 95,0 [BEAB531B] [7405CA86]
03 96,9 [3A971C0A] [7D42C8F7]
04 99,9 [67BF64DE] [1DE02D91]
05 98,7 [FD3329A3] [C4D240CB]
06 99,4 [68DC5BDE] [A8BC81D3]
07 97,6 [D83E3BC5] [01BADD6B]
08 92,6 [F3944EB3] [1B539F71]
09 92,2 [F5663950] [0F61F97B]
10 97,6 [EEC43880] [7E68F19A]
11 100,0 [89CA95F6] [18405DAE]
12 98,3 [A453B03E] [C1F3A40D]


The Beatles - Dr. Ebbetts's US Stereo Albums Collection (1964-1970)

Tracklist CD04. 1964 - Something New [ST 2108]:

01. I'll Cry Instead [1:48]
02. Things We Said Today [2:37]
03. Any Time At All [2:13]
04. When I Get Home [2:18]
05. Slow Down [2:58]
06. Matchbox [1:59]
07. Tell Me Why [2:10]
08. And I Love Her [2:33]
09. I'm Happy Just To Dance With You [1:59]
10. If I Fell [2:20]
11. Komm Gib Mir Deine Hand [2:27]

[CUETools log; Date: 28.02.2020 9:15:34; Version: 2.1.4]
[AccurateRip ID: 000a63a7-005a65d7-8905f30b] found.
Track [ CRC | V2 ] Status
01 [d40bfba8|5fc232ee] (1+1/2) Accurately ripped
02 [7c327aa5|6ecf6460] (1+1/2) Accurately ripped
03 [a474e651|59efc69f] (1+1/2) Accurately ripped
04 [a540ef8b|5287ee2f] (1+1/2) Accurately ripped
05 [2f05c914|ae5ea2e4] (1+1/2) Accurately ripped
06 [1555b6fb|1fd1da50] (1+1/2) Accurately ripped
07 [6b8cabcc|4c3f2bcc] (1+1/2) Accurately ripped
08 [8e22d1b5|c3ad3ecb] (1+1/2) Accurately ripped
09 [53e2a900|8619ce7b] (1+1/2) Accurately ripped
10 [2099be1e|bff9a6df] (1+1/2) Accurately ripped
11 [0da54251|03a657dd] (1+1/2) Accurately ripped

Track Peak [ CRC32 ] [W/O NULL]
– 100,0 [37CFD611] [8D47589C]
01 98,6 [BCE5C3DA] [A22B0CD4]
02 97,5 [56E8EE12] [F8C7874D]
03 98,2 [399EA446] [BCD43B70]
04 98,4 [B242AD24] [D8F0866B]
05 98,1 [95178A58] [3D459199]
06 93,6 [A651A875] [82EC4287]
07 98,9 [11312C1D] [85804C40]
08 98,5 [58BBAFE4] [97F3750F]
09 100,0 [3D25B3CD] [18F435FC]
10 95,9 [A7681C16] [AC1B24D9]
11 92,6 [193C870E] [E287530F]


The Beatles - Dr. Ebbetts's US Stereo Albums Collection (1964-1970)

Tracklist CD05. 1964 - Beatles '65 [ST 2228]:

01. No Reply [2:18]
02. I'm A Loser [2:31]
03. Baby's In Black [2:07]
04. Rock And Roll Music [2:33]
05. I'll Follow The Sun [1:50]
06. Mr. Moonlight [2:41]
07. Honey Don't [3:00]
08. I'll Be Back [2:24]
09. She's A Woman [3:00]
10. I Feel Fine [2:23]
11. Everybody's Trying To Be My Baby [2:26]

[CUETools log; Date: 28.02.2020 9:16:55; Version: 2.1.4]
[AccurateRip ID: 000af73e-005fbcf1-8906610b] disk not present in database.

Track Peak [ CRC32 ] [W/O NULL]
– 100,0 [02FF10DC] [86E93C61]
01 98,0 [F2369817] [5CF2F774]
02 97,9 [0BB7AEFA] [F2861ED8]
03 100,0 [6B49D738] [1158E2FA]
04 96,8 [643AD578] [A49669B5]
05 82,7 [CC20B160] [0AFFB48C]
06 89,9 [10D8C905] [7610B9F4]
07 99,9 [1AA21951] [404C24E0]
08 98,4 [1042CFCB] [D16ED770]
09 98,7 [D0E3C8B3] [37A69257]
10 97,1 [7ED4CAF9] [AE281231]
11 96,5 [73D8ABC1] [19C01F98]


The Beatles - Dr. Ebbetts's US Stereo Albums Collection (1964-1970)

Tracklist CD06. 1965 - The Early Beatles [ST 2309]:

01. Love Me Do [2:24]
02. Twist And Shout [2:35]
03. Anna (Go To Him) [2:58]
04. Chains [2:26]
05. Boys [2:27]
06. Ask Me Why [2:27]
07. Please Please Me [2:01]
08. P.S. I Love You [2:06]
09. Baby It's You [2:42]
10. A Taste Of Honey [2:05]
11. Do You Want To Know A Secret [1:58]

[CUETools log; Date: 28.02.2020 9:18:12; Version: 2.1.4]
[AccurateRip ID: 000b3042-00603524-7c06200b] found.
Track [ CRC | V2 ] Status
01 [5c2b6dae|31dab09e] (0+1/2) Accurately ripped
02 [c6774953|334ba82d] (0+1/2) Accurately ripped
03 [af41fe68|74116042] (0+1/2) Accurately ripped
04 [8e789d91|40ae82b6] (0+1/2) Accurately ripped
05 [c6cbf261|5d4b5a90] (0+1/2) Accurately ripped
06 [e9708f3f|6d733f2e] (0+1/2) Accurately ripped
07 [fe12eccb|cd096e0f] (0+1/2) Accurately ripped
08 [0cc95eb7|e22b3bb3] (0+1/2) Accurately ripped
09 [883c3f72|1614416e] (0+1/2) Accurately ripped
10 [76ee6f91|067354d4] (0+1/2) Accurately ripped
11 [3ca41888|0e118acc] (0+1/2) Accurately ripped

Track Peak [ CRC32 ] [W/O NULL]
– 100,0 [A3CD0A01] [5063F66A]
01 98,9 [DCA17ED6] [37D54930]
02 99,1 [FD17DAEE] [576E6616]
03 100,0 [348411CE] [07846FE5]
04 100,0 [BE5C0601] [0CA9E68E]
05 100,0 [4EC37DE6] [D59CC092]
06 98,3 [EE17B604] [05FE1FD1]
07 99,9 [03638855] [80E8004B]
08 97,1 [168FDFF6] [2CF3D774]
09 99,9 [4731A041] [632D1338]
10 93,8 [7042FE88] [652754FC]
11 95,1 [438B8AC7] [5F53F48C]


The Beatles - Dr. Ebbetts's US Stereo Albums Collection (1964-1970)

Tracklist CD07. 1965 - Beatles VI [ST 2358]:

01. Kansas City [2:41]
02. Eight Days A Week [2:45]
03. You Like Me Too Much [2:37]
04. Bad Boy [2:21]
05. I Don't Want To Spoil The Party [2:35]
06. Words Of Love [2:06]
07. What You're Doing [2:33]
08. Yes It Is [2:43]
09. Dizzy Miss Lizzie [2:57]
10. Tell Me What You See [2:40]
11. Every Little Thing [2:03]

[CUETools log; Date: 28.02.2020 9:19:35; Version: 2.1.4]
[AccurateRip ID: 000bad31-0064e6ac-7d06910b] disk not present in database.

Track Peak [ CRC32 ] [W/O NULL]
– 100,0 [0CCD631F] [9238D8F0]
01 97,7 [6AD9F6C1] [807B3969]
02 96,4 [7691AD90] [6B830B34]
03 90,4 [CE51442B] [10E8BDE9]
04 97,1 [2126F19D] [D53A085A]
05 100,0 [C64219A2] [992E9BCE]
06 93,8 [0095DFA1] [AB56A861]
07 94,2 [17EE9335] [C3B8BF85]
08 92,8 [6165D471] [4492A5C6]
09 100,0 [23E8F7E6] [DBB8B498]
10 100,0 [4A8DFBBB] [7A4663D2]
11 96,8 [2E2CE578] [B72444B7]


The Beatles - Dr. Ebbetts's US Stereo Albums Collection (1964-1970)

Tracklist CD08. 1965 - Help! [SMAS 2386]:

01. Help! [2:37]
02. The Night Before [2:34]
03. From Me To You Fantasy (Instrumental) [2:07]
04. You've Got To Hide Your Love Away [2:10]
05. I Need You [2:30]
06. In The Tyrol (Instrumental) [2:24]
07. Another Girl [2:06]
08. Another Hard Day's Night (Instrumental) [2:31]
09. Ticket To Ride [3:06]
10. The Bitter End (Instrumental) [2:24]
11. You're Gonna Lose That Girl [2:19]
12. The Chase (Instrumental) [2:26]

[CUETools log; Date: 28.02.2020 9:20:45; Version: 2.1.4]
[AccurateRip ID: 000cfab6-00792c9f-9206da0c] found.
Track [ CRC | V2 ] Status
01 [9e9ba71d|3721224d] (2+0/2) Accurately ripped
02 [3eb31f74|a4459160] (2+0/2) Accurately ripped
03 [110efc40|4795a99b] (2+0/2) Accurately ripped
04 [feaf4b00|be1c16cf] (2+0/2) Accurately ripped
05 [1d8bc6e6|5a76150a] (2+0/2) Accurately ripped
06 [1c519c0f|bfea809a] (2+0/2) Accurately ripped
07 [b4b79299|612c8371] (2+0/2) Accurately ripped
08 [8c7d4228|e96d0593] (2+0/2) Accurately ripped
09 [1ed45bed|c2448c93] (2+0/2) Accurately ripped
10 [a3701a49|abf9c2b0] (2+0/2) Accurately ripped
11 [35c6e3ef|79dbc383] (2+0/2) Accurately ripped
12 [b3d289d2|44279cdf] (2+0/2) Accurately ripped

Track Peak [ CRC32 ] [W/O NULL]
– 100,0 [2CA2013B] [536EDB17]
01 95,1 [897EB8A4] [9577CA32]
02 99,7 [FAC1BA9B] [EEE3059E]
03 91,2 [97D724E3] [73604896]
04 95,9 [4F3D2212] [BE5A16D4]
05 99,2 [3D214CFC] [D9040F9D]
06 99,6 [BE52C116] [150837FC]
07 97,4 [379C860F] [4421A123]
08 97,2 [903F0695] [324ACCC5]
09 97,8 [E5D324D4] [0B7809C7]
10 94,5 [ECDA4752] [B7F39B4A]
11 97,9 [67744DD1] [E276F848]
12 100,0 [2760301B] [3EC86721]


The Beatles - Dr. Ebbetts's US Stereo Albums Collection (1964-1970)

Tracklist CD09. 1965 - Rubber Soul [ST 2442]:

01. I've Just Seen A Face [2:07]
02. Norwegian Wood (This Bird Has Flown) [2:06]
03. You Won't See Me [3:23]
04. Think For Yourself [2:19]
05. The Word [2:47]
06. Michelle [2:45]
07. It's Only Love [1:58]
08. Girl [2:32]
09. I'm Looking Through You [2:31]
10. In My Life [2:28]
11. Wait [2:15]
12. Run For Your Life [2:23]

[CUETools log; Date: 28.02.2020 9:22:13; Version: 2.1.4]
[AccurateRip ID: 000d4d42-007c61a6-9c06ef0c] found.
Track [ CRC | V2 ] Status
01 [3b569acf|4c2c1e75] (1+1/5) Accurately ripped
02 [e1a97e20|f094fc8b] (1+1/5) Accurately ripped
03 [23a48234|29c3c587] (1+1/5) Accurately ripped
04 [2f691ce3|4ada297a] (1+1/5) Accurately ripped
05 [a29c407b|db810b9e] (1+1/5) Accurately ripped
06 [61927a4c|908fc9db] (1+1/5) Accurately ripped
07 [5476715a|09c46b9f] (1+1/5) Accurately ripped
08 [5ec5d722|009be5f6] (1+1/5) Accurately ripped
09 [87989435|fa325674] (1+1/5) Accurately ripped
10 [01f41710|16d31a57] (1+1/5) Accurately ripped
11 [286ebe95|6154e8cd] (1+1/5) Accurately ripped
12 [7c865c5e|65686a61] (1+1/5) Accurately ripped
Offsetted by -66:
01 [af31daff] (1/5) Accurately ripped
02 [66796bde] (1/5) Accurately ripped
03 [0ebeab27] (1/5) Accurately ripped
04 [e39e4e7e] (1/5) Accurately ripped
05 [b4861f44] (1/5) Accurately ripped
06 [85db6f58] (1/5) Accurately ripped
07 [631a4d93] (1/5) Accurately ripped
08 [ec8c4806] (1/5) Accurately ripped
09 [5e8928cd] (1/5) Accurately ripped
10 [cbbf8ba9] (1/5) Accurately ripped
11 [4ae3b417] (1/5) Accurately ripped
12 [dedbc8b7] (1/5) Accurately ripped
Offsetted by 6:
01 [3f0b2d41] (1/5) Accurately ripped
02 [aae778c0] (1/5) Accurately ripped
03 [d48b1d56] (1/5) Accurately ripped
04 [11c1fe5a] (1/5) Accurately ripped
05 [e41f664c] (1/5) Accurately ripped
06 [7a4194e3] (1/5) Accurately ripped
07 [327d9ca6] (1/5) Accurately ripped
08 [55758bd5] (1/5) Accurately ripped
09 [899c3239] (1/5) Accurately ripped
10 [3fb3c2b1] (1/5) Accurately ripped
11 [d617dcac] (1/5) Accurately ripped
12 [5316033f] (1/5) Accurately ripped

Track Peak [ CRC32 ] [W/O NULL]
– 100,0 [FF95FCBD] [3A503D8C]
01 100,0 [82D51F5F] [32CB5DF5]
02 94,8 [826450FD] [E31B4AC9]
03 100,0 [B90696BE] [FAACA3E9]
04 98,7 [A185E589] [51D2C26A]
05 98,8 [7E2C17C1] [8F78FF60]
06 78,0 [CE6704E1] [8C9C2B52]
07 99,2 [4D4AC496] [FFB4CEA6]
08 94,8 [49413E4B] [05437A5C]
09 97,2 [E74DA89D] [2FEB20AB]
10 98,0 [32C8DADD] [065D2E28]
11 94,7 [3DF5A682] [886B2073]
12 100,0 [036D8696] [63EC0325]


The Beatles - Dr. Ebbetts's US Stereo Albums Collection (1964-1970)

Tracklist CD10. 1966 - Yesterday and Today [ST 2553]:

01. Drive My Car [2:28]
02. I'm Only Sleeping [3:04]
03. Nowhere Man [2:42]
04. Doctor Robert [2:17]
05. Yesterday [2:05]
06. Act Naturally [2:29]
07. And Your Bird Can Sing [2:04]
08. If I Needed Someone [2:22]
09. We Can Work It Out [2:16]
10. What Goes On [2:48]
11. Day Tripper [2:50]

[CUETools log; Date: 28.02.2020 9:23:22; Version: 2.1.4]
[AccurateRip ID: 000b5604-00618300-8c066e0b] found.
Track [ CRC | V2 ] Status
01 [fda0817d|b262e017] (0+0/2) No match
02 [b5e945af|1b0aaa8a] (0+0/2) No match
03 [75c55134|ba37d73f] (0+0/2) No match
04 [930f066f|0cc5169b] (0+0/2) No match
05 [315066eb|12cd3576] (0+0/2) No match
06 [efd9cfb6|78cc0bec] (0+0/2) No match
07 [8813b0ed|326014d1] (0+0/2) No match
08 [da5ad105|7704b8b7] (0+0/2) No match
09 [d993cc0a|d5c7fae1] (0+0/2) No match
10 [9423e646|f19ee62c] (0+0/2) No match
11 [1cfe11a8|9ff77d4a] (0+0/2) No match
Offsetted by 6:
01 [4118d22c] (0/2) No match (V2 was not tested)
02 [1a250d4f] (0/2) No match (V2 was not tested)
03 [91fd2a7f] (0/2) No match (V2 was not tested)
04 [ea24ac3e] (0/2) No match (V2 was not tested)
05 [260573c1] (0/2) No match (V2 was not tested)
06 [e95c256d] (0/2) No match (V2 was not tested)
07 [55f859ff] (0/2) No match (V2 was not tested)
08 [d79df32a] (0/2) No match (V2 was not tested)
09 [8298da5f] (0/2) No match (V2 was not tested)
10 [16e2bd37] (0/2) No match (V2 was not tested)
11 [14c09140] (0/2) No match (V2 was not tested)

Track Peak [ CRC32 ] [W/O NULL]
– 100,0 [84DD6C19] [268AA2E9]
01 99,5 [09996DD6] [93D92C80]
02 98,5 [0A02BD52] [D966385E]
03 99,0 [F7EDE2DB] [38FCCC17]
04 100,0 [A1482599] [3E2F13C3]
05 95,6 [37C5B7D0] [8DBFA9AD]
06 98,4 [EF295601] [23A6A541]
07 98,4 [2B73EB29] [B27036CC]
08 99,9 [DE2C6431] [C489A879]
09 95,5 [5FED39B5] [DE48AD67]
10 98,1 [FC12AB5A] [A1E18B96]
11 98,6 [F0DACFA2] [62DE77BC]


The Beatles - Dr. Ebbetts's US Stereo Albums Collection (1964-1970)

Tracklist CD11. 1966 - Revolver [ST 2576]:

01. Taxman [2:41]
02. Eleanor Rigby [2:10]
03. Love You To [3:03]
04. Here, There And Everywhere [2:28]
05. Yellow Submarine [2:42]
06. She Said She Said [2:39]
07. Good Day Sunshine [2:12]
08. For No One [2:04]
09. I Want To Tell You [2:32]
10. Got To Get You Into My Life [2:32]
11. Tomorrow Never Knows [2:57]

[CUETools log; Date: 28.02.2020 9:24:32; Version: 2.1.4]
[AccurateRip ID: 000b89b0-0063ac18-8106900b] found.
Track [ CRC | V2 ] Status
01 [1d29aa47|bf8b00ac] (2+0/2) Accurately ripped
02 [adca3250|22f5ed44] (2+0/2) Accurately ripped
03 [034c099b|facb6cec] (2+0/2) Accurately ripped
04 [7cd1dc59|f6615fea] (2+0/2) Accurately ripped
05 [daf8a89d|80c89400] (2+0/2) Accurately ripped
06 [016abf31|96a339ef] (2+0/2) Accurately ripped
07 [acc57274|8d4388f5] (2+0/2) Accurately ripped
08 [c3d8d1b2|47702e0d] (2+0/2) Accurately ripped
09 [451e592d|4b7921b5] (2+0/2) Accurately ripped
10 [a3456c63|5233e69d] (2+0/2) Accurately ripped
11 [ac2836ad|0a9c2c9b] (2+0/2) Accurately ripped

Track Peak [ CRC32 ] [W/O NULL]
– 100,0 [473B533F] [6B847924]
01 88,5 [15A13419] [D58D8DF6]
02 70,0 [4C220ECD] [7DD872D4]
03 85,4 [0F776758] [B9CF3F61]
04 61,9 [DE983B65] [60868144]
05 99,7 [8E6FEBCF] [68152A57]
06 80,5 [1186293A] [D9BF237D]
07 100,0 [62AF349E] [EE609810]
08 85,1 [A77D11D4] [E27D88C3]
09 89,3 [9570CB42] [77951805]
10 79,8 [AD01FAFD] [9BB834FF]
11 87,0 [16874C37] [2674725D]


The Beatles - Dr. Ebbetts's US Stereo Albums Collection (1964-1970)

Tracklist CD12. 1967 - Sgt. Pepper's Lonely Hearts Club Band [SMAS 2653]:

01. Sgt. Pepper's Lonely Hearts Club Band [2:01]
02. A Little Help From My Friends [2:44]
03. Lucy In The Sky With Diamonds [3:28]
04. Getting Better [2:48]
05. Fixing A Hole [2:37]
06. She's Leaving Home [3:36]
07. Being For The Benefit Of Mr Kite [2:37]
08. Within You Without You [5:03]
09. When I'm Sixty-Four [2:38]
10. Lovely Rita [2:42]
11. Good Morning, Good Morning [2:41]
12. Sgt. Pepper's Lonely Hearts Club Band (Reprise) [1:20]
13. A Day In The Life [5:06]

[CUETools log; Date: 28.02.2020 9:26:50; Version: 2.1.4]
[AccurateRip ID: 0012419f-00b8bc6b-b709380d] found.
Track [ CRC | V2 ] Status
01 [6384a457|68781d0e] (2+0/2) Accurately ripped
02 [9e206214|a3882816] (2+0/2) Accurately ripped
03 [72dbfb74|5d7261af] (2+0/2) Accurately ripped
04 [a0a95a51|8e2dd48b] (2+0/2) Accurately ripped
05 [ad8cf210|ea41bffe] (2+0/2) Accurately ripped
06 [bc7c172c|b545172f] (2+0/2) Accurately ripped
07 [36cf4d0f|19883b18] (2+0/2) Accurately ripped
08 [843a5660|22161271] (2+0/2) Accurately ripped
09 [90d66871|f9241bda] (2+0/2) Accurately ripped
10 [4566ea70|f0278dcb] (2+0/2) Accurately ripped
11 [1f86fccf|47f31a8d] (2+0/2) Accurately ripped
12 [493ddbee|07d203b5] (2+0/2) Accurately ripped
13 [491e6274|5418b28d] (2+0/2) Accurately ripped

Track Peak [ CRC32 ] [W/O NULL]
– 100,0 [DC35F555] [F39EAE3E]
01 91,3 [6D905273] [7664A6CF]
02 95,6 [5D4C1AAC] [034EC2A2]
03 88,5 [E67E9FCB] [0764BC28]
04 100,0 [30CD3010] [00561655]
05 96,8 [E172CC19] [2D7B9278]
06 70,7 [437BAB84] [F4060066]
07 73,6 [3ED0A96F] [BF17B858]
08 93,1 [24F933F6] [EA214E5D]
09 99,9 [9C2F8B1D] [91060B07]
10 89,3 [6CD2FD65] [44261526]
11 97,5 [B69783CE] [86D87192]
12 97,2 [BB3D1BB1] [31619F31]
13 78,0 [7A674020] [5DF7A868]


The Beatles - Dr. Ebbetts's US Stereo Albums Collection (1964-1970)

Tracklist CD13. 1967 - Magical Mystery Tour [SMAL 2835]:

01. Magical Mystery Tour [2:47]
02. The Fool On The Hill [2:56]
03. Flying [2:17]
04. Blue Jay Way [3:51]
05. Your Mother Should Know [2:27]
06. I Am The Walrus [4:34]
07. Hello Goodbye [3:28]
08. Strawberry Fields Forever [4:07]
09. Penny Lane [2:59]
10. Baby You're A Rich Man [3:05]
11. All You Need Is Love [4:00]

[CUETools log; Date: 28.02.2020 9:28:37; Version: 2.1.4]
[AccurateRip ID: 000e5602-007e40ac-94088e0b] found.
Track [ CRC | V2 ] Status
01 [f0d9ec7b|95f7b060] (2+0/2) Accurately ripped
02 [55d503ba|45fca007] (2+0/2) Accurately ripped
03 [d61845a2|11f0d090] (2+0/2) Accurately ripped
04 [b0a22956|ea10a81f] (2+0/2) Accurately ripped
05 [66f0b8bc|1cc47d1e] (2+0/2) Accurately ripped
06 [9e1f606e|a4394ecf] (2+0/2) Accurately ripped
07 [79ab7fbf|ecddf874] (2+0/2) Accurately ripped
08 [64611693|7772bf45] (2+0/2) Accurately ripped
09 [b011d852|d7fb77e6] (2+0/2) Accurately ripped
10 [c67c6837|792a5ad8] (2+0/2) Accurately ripped
11 [ebbaca58|6dbda508] (2+0/2) Accurately ripped

Track Peak [ CRC32 ] [W/O NULL]
– 99,6 [9C3EB61C] [CFA90A22]
01 94,2 [13B5120C] [9A28ACB2]
02 78,0 [7A232618] [2DB6E647]
03 95,5 [EF382C3A] [AFD20C25]
04 99,6 [028E167B] [90742CDA]
05 81,6 [D6C939C1] [CBC617CD]
06 98,4 [9B1CFD53] [D3F1F69B]
07 93,4 [551764D9] [D1EB46FE]
08 88,9 [87D2BF97] [FBDF225C]
09 63,6 [D5C4FC69] [7CD853EA]
10 76,0 [D813CCCE] [16B234D1]
11 67,4 [8D6E2900] [935B589B]


The Beatles - Dr. Ebbetts's US Stereo Albums Collection (1964-1970)

Tracklist CD14. 1968 - The White Album CD1 [SWBO 101]:

01. Back In The U.S.S.R. [2:43]
02. Dear Prudence [3:53]
03. Glass Onion [2:17]
04. Ob-La-Di, Ob-La-Da [3:08]
05. Wild Honey Pie [0:53]
06. The Continuing Story Of Bungalow Bill [3:13]
07. While My Guitar Gently Weeps [4:46]
08. Happiness Is A Warm Gun [2:41]
09. Martha My Dear [2:27]
10. I'm So Tired [2:03]
11. Blackbird [2:18]
12. Piggies [2:04]
13. Rocky Raccoon [3:32]
14. Don't Pass Me By [3:49]
15. Why Don't We Do It In The Road [1:41]
16. I Will [1:46]
17. Julia [2:54]

[CUETools log; Date: 28.02.2020 9:30:33; Version: 2.1.4]
[AccurateRip ID: 001d511b-0170d8b4-0c0ace11] found.
Track [ CRC | V2 ] Status
01 [0984a7fc|878b37a8] (0+0/1) No match
02 [5022f741|a3ec12aa] (0+0/1) No match
03 [58fe881b|a24b5dc4] (0+0/1) No match
04 [a4c99c46|4208b9e0] (0+0/1) No match
05 [2d8c1702|79b59e39] (0+0/1) No match
06 [3167ea5d|b6d3fea4] (0+0/1) No match
07 [a7e7e19a|5b330830] (0+0/1) No match
08 [93856dbf|4cd6cde3] (0+0/1) No match
09 [15f2e415|50afe236] (0+0/1) No match
10 [8064b8f4|1b93714d] (0+0/1) No match
11 [587066f9|f7e491da] (0+0/1) No match
12 [b236095c|65a8f5b4] (0+0/1) No match
13 [5c11edce|e02972e1] (0+0/1) No match
14 [6aba14e3|fdbc1f90] (0+0/1) No match
15 [85c121ab|9eced7f2] (0+0/1) No match
16 [965402c9|d36d6a09] (0+0/1) No match
17 [385aa528|881a985b] (0+0/1) No match
Offsetted by 6:
01 [b5220489] (1/1) Accurately ripped
02 [56b1d9a2] (1/1) Accurately ripped
03 [96258fb7] (1/1) Accurately ripped
04 [e3b328b6] (1/1) Accurately ripped
05 [bf959c50] (1/1) Accurately ripped
06 [acc28667] (1/1) Accurately ripped
07 [96faf0a4] (1/1) Accurately ripped
08 [f256f2ee] (1/1) Accurately ripped
09 [dd5bbd02] (1/1) Accurately ripped
10 [daac80b1] (1/1) Accurately ripped
11 [3024659d] (1/1) Accurately ripped
12 [c9a6fc54] (1/1) Accurately ripped
13 [7c7f60dd] (1/1) Accurately ripped
14 [4456db57] (1/1) Accurately ripped
15 [8b0c85bf] (1/1) Accurately ripped
16 [18e5c52c] (1/1) Accurately ripped
17 [23de8d75] (1/1) Accurately ripped

Track Peak [ CRC32 ] [W/O NULL]
– 99,2 [BD75E777] [AD085446]
01 82,7 [CC7ACFA5] [83C64E94]
02 68,7 [E98E4E19] [571DBE6F]
03 72,2 [54AC91BE] [EF4F7F3F]
04 72,8 [6D8B81FF] [5DEFBC49]
05 76,9 [362B7973] [34EA99B3]
06 70,6 [8719886A] [3C1F6FCF]
07 68,2 [FEC72939] [59B06B3E]
08 75,1 [16DF69D6] [DF4570B9]
09 99,2 [8B320C1E] [3FDDB6B6]
10 94,3 [90B0D91D] [91D87C5B]
11 78,1 [C9486D0B] [D1075730]
12 86,3 [D9894DA9] [3B3AF4D5]
13 92,5 [055422C1] [933FAD0E]
14 97,3 [9106EACF] [8999D94A]
15 98,5 [5CF2B124] [7012B3E4]
16 82,9 [611D977D] [E82CAFDA]
17 44,6 [9B65530A] [5F9928C9]


The Beatles - Dr. Ebbetts's US Stereo Albums Collection (1964-1970)

Tracklist CD15. 1968 - The White Album CD2 [SWBO 101]:

01. Birthday [2:42]
02. Yer Blues [3:59]
03. Mother Nature's Son [2:47]
04. Everybody's Got Something To Hide Except Me And My Monkey [2:24]
05. Sexy Sadie [3:14]
06. Helter Skelter [4:28]
07. Long, Long, Long [3:03]
08. Revolution 1 [4:14]
09. Honey Pie [2:40]
10. Savoy Truffle [2:54]
11. Cry Baby Cry [3:01]
12. Revolution 9 [8:19]
13. Good Night [3:12]

[CUETools log; Date: 28.02.2020 9:32:30; Version: 2.1.4]
[AccurateRip ID: 0014cec3-00d347fc-af0b010d] found.
Track [ CRC | V2 ] Status
01 [1cba1eea|9bfe56cd] (0+0/1) No match
02 [8ce60e69|44423fb5] (0+0/1) No match
03 [6fc6515c|4073971b] (0+0/1) No match
04 [b0dd559f|ec73993d] (0+0/1) No match
05 [6d254d2b|4895f510] (0+0/1) No match
06 [e31693f9|815e8079] (0+0/1) No match
07 [d16c54e8|6c15ed80] (0+0/1) No match
08 [3026f178|f3c218f2] (0+0/1) No match
09 [de1dd13c|eb8a5e9f] (0+0/1) No match
10 [8f1c3411|4085ed3c] (0+0/1) No match
11 [72ce15a8|75f534b8] (0+0/1) No match
12 [10c01cef|7260950f] (0+0/1) No match
13 [87ba6615|23a3b832] (0+0/1) No match
Offsetted by 6:
01 [d2a6b937] (1/1) Accurately ripped
02 [070b6adb] (1/1) Accurately ripped
03 [c16884b2] (1/1) Accurately ripped
04 [65462de3] (1/1) Accurately ripped
05 [71fde1e0] (1/1) Accurately ripped
06 [604aedfe] (1/1) Accurately ripped
07 [3839534f] (1/1) Accurately ripped
08 [b845f462] (1/1) Accurately ripped
09 [b2f66201] (1/1) Accurately ripped
10 [caa1226a] (1/1) Accurately ripped
11 [d16d63ee] (1/1) Accurately ripped
12 [cf0e2e00] (1/1) Accurately ripped
13 [dfc2bc1f] (1/1) Accurately ripped

Track Peak [ CRC32 ] [W/O NULL]
– 100,0 [23DD9622] [4270AD7A]
01 95,5 [A4E276D1] [CAB32E4B]
02 100,0 [B7098677] [670A64B9]
03 53,8 [C3A15DF7] [BFB50E4A]
04 79,1 [1E89AC7C] [8764E7A9]
05 93,0 [53D77C4B] [6699F242]
06 76,8 [BEF60215] [BD00469D]
07 73,4 [94345408] [B8B04740]
08 91,3 [0307D681] [96CE051E]
09 85,0 [51189BFE] [62D6D264]
10 70,0 [FD88EDE5] [C3CFD31C]
11 72,8 [F0137160] [6C79DDA5]
12 78,1 [EF4E98BD] [6DF6983F]
13 71,3 [9C175B26] [5A1ED7EF]


The Beatles - Dr. Ebbetts's US Stereo Albums Collection (1964-1970)

Tracklist CD16. 1969 - Yellow Submarine [SW 153]:

01. Yellow Submarine [2:41]
02. Only A Northern Song [3:27]
03. All Together Now [2:14]
04. Hey Bulldog [3:13]
05. It's All Too Much [6:27]
06. All You Need Is Love [3:46]
07. Pepperland [2:20]
08. Sea Of Time [5:18]
09. Sea Of Holes [3:38]
10. Sea Of Monsters [2:20]
11. March Of The Meanies [2:14]
12. Pepperland Laid Waste [2:11]

[CUETools log; Date: 28.02.2020 9:34:05; Version: 2.1.4]
[AccurateRip ID: 001268c2-00ad46e9-9909550c] found.
Track [ CRC | V2 ] Status
01 [1ef94c59|51826ff7] (0+0/2) No match
02 [5b212301|187a010d] (0+0/2) No match
03 [b7b065d2|95f5307e] (0+0/2) No match
04 [b1c6fb4e|cdef3212] (0+0/2) No match
05 [4835352c|47b93c15] (0+0/2) No match
06 [1558ead7|c91c6b53] (0+0/2) No match
07 [7bc2f750|84de855f] (0+0/2) No match
08 [4ea93e7f|f48c40d0] (0+0/2) No match
09 [a8903c7b|187d93b9] (0+0/2) No match
10 [619519c1|bc8fdc6d] (0+0/2) No match
11 [8b46bbc6|f6b4b99d] (0+0/2) No match
12 [cc762f67|598f60e8] (0+0/2) No match
Offsetted by 6:
01 [35f6ba0c] (1/2) Accurately ripped
02 [edad66d7] (1/2) Accurately ripped
03 [d9620384] (1/2) Accurately ripped
04 [5591286d] (1/2) Accurately ripped
05 [095b5b79] (1/2) Accurately ripped
06 [73d67319] (1/2) Accurately ripped
07 [bc88fe5a] (1/2) Accurately ripped
08 [e0bb463d] (1/2) Accurately ripped
09 [774e3609] (1/2) Accurately ripped
10 [de762511] (1/2) Accurately ripped
11 [e8b0e28c] (1/2) Accurately ripped
12 [30528725] (1/2) Accurately ripped

Track Peak [ CRC32 ] [W/O NULL]
– 99,3 [8FED61E2] [EC65176F]
01 87,3 [64E8E5C2] [DDBFA78A]
02 84,7 [D7DAEA36] [B9B0400A]
03 86,7 [49376AFF] [9D7037AF]
04 87,3 [4620C62F] [71D863C2]
05 87,3 [D4E7026C] [BAB2AE0F]
06 87,3 [0C98F384] [37ADB7CE]
07 96,5 [69A6EB77] [D013EF94]
08 98,9 [E1DD856A] [83FB79A4]
09 97,7 [56B92458] [2415C2F5]
10 98,9 [EE07BDA7] [EE9EED3C]
11 95,5 [2B187976] [F318B563]
12 99,3 [00A9DAB1] [0234A5B2]


The Beatles - Dr. Ebbetts's US Stereo Albums Collection (1964-1970)

Tracklist CD17. 1969 - Abbey Road [SO 383]:

01. Come Together [4:21]
02. Something [3:03]
03. Maxwell's Silver Hammer [3:28]
04. Oh! Darling [3:27]
05. Octopus's Garden [2:51]
06. I Want You (She's So Heavy) [7:46]
07. Here Comes The Sun [3:05]
08. Because [2:46]
09. You Never Give Me Your Money [4:02]
10. Sun King [2:26]
11. Mean Mr. Mustard [1:06]
12. Polythene Pam [1:13]
13. She Came In Through The Bathroom Window [1:59]
14. Golden Slumbers [1:31]
15. Carry That Weight [1:36]
16. The End [2:22]
17. Her Majesty [0:25]

[CUETools log; Date: 28.02.2020 9:36:04; Version: 2.1.4]
[AccurateRip ID: 00231efd-01ad514b-ee0b1f11] found.
Track [ CRC | V2 ] Status
01 [9ed2feb4|02b8a5c5] (0+0/2) No match
02 [292f2d55|fe6f8e49] (0+0/2) No match
03 [4fc0008e|f10fe48b] (0+0/2) No match
04 [d2c9fa58|d63cbfa8] (0+0/2) No match
05 [77650749|7715410a] (0+0/2) No match
06 [2c04337b|12b89201] (0+0/2) No match
07 [aca92ebb|c0d33846] (0+0/2) No match
08 [8a4e10a4|f15dd192] (0+0/2) No match
09 [b68c81e6|4644b812] (0+0/2) No match
10 [13aff194|82a9cf77] (0+0/2) No match
11 [c7a8ac0e|b01526d1] (0+0/2) No match
12 [9ef27354|48294cb0] (0+0/2) No match
13 [5cf91591|7d3d80dc] (0+0/2) No match
14 [c2117492|5d7c95bd] (0+0/2) No match
15 [8bdd40b3|915c4567] (0+0/2) No match
16 [1936373a|48f33fd3] (0+0/2) No match
17 [cae92caf|774b1bf6] (0+0/2) No match
Offsetted by 6:
01 [728f8e77] (1/2) Accurately ripped
02 [34ba42ed] (1/2) Accurately ripped
03 [d833ed94] (1/2) Accurately ripped
04 [c203db4b] (1/2) Accurately ripped
05 [f5e94c16] (1/2) Accurately ripped
06 [ca1aa4e1] (1/2) Accurately ripped
07 [0984f97b] (1/2) Accurately ripped
08 [519182a4] (1/2) Accurately ripped
09 [0ed30234] (1/2) Accurately ripped
10 [fe298581] (1/2) Accurately ripped
11 [309cbee0] (1/2) Accurately ripped
12 [61a89f21] (1/2) Accurately ripped
13 [f491e2c8] (1/2) Accurately ripped
14 [8f6cbb46] (1/2) Accurately ripped
15 [c432034f] (1/2) Accurately ripped
16 [5ea7393f] (1/2) Accurately ripped
17 [7e048d53] (1/2) Accurately ripped

Track Peak [ CRC32 ] [W/O NULL]
– 100,0 [83010BE3] [44D95D36]
01 100,0 [6624DDD8] [BFB9C51C]
02 99,4 [151E8896] [BF04E486]
03 99,6 [46589115] [E4B33D10]
04 99,8 [284BFD69] [AF4CDB23]
05 97,0 [6D5A4B2C] [6A74B7BE]
06 100,0 [A97C3D63] [074A1E70]
07 100,0 [6481B715] [0D62BB94]
08 81,4 [6DE3543F] [41C3F420]
09 98,9 [29BFF3E4] [132A5959]
10 71,6 [9540C5B7] [5F3F8782]
11 95,5 [0F5925D9] [8E53B6A7]
12 97,2 [D2669BA5] [F972C8B6]
13 99,4 [3A99BD27] [5C33ED74]
14 91,7 [989CD01A] [BD8D6561]
15 88,5 [D6FE1C81] [6C1283EC]
16 97,9 [5E2D2D27] [FE208591]
17 73,9 [5001D8DF] [1DEEEC5C]


The Beatles - Dr. Ebbetts's US Stereo Albums Collection (1964-1970)

Tracklist CD18. 1970 - Hey Jude [SW 385]:

01. Can't Buy Me Love [2:13]
02. I Should Have Known Better [2:45]
03. Paperback Writer [2:20]
04. Rain [3:03]
05. Lady Madonna [2:18]
06. Revolution [3:26]
07. Hey Jude [7:10]
08. Old Brown Shoe [3:20]
09. Don't Let Me Down [3:35]
10. The Ballad Of John And Yoko [2:59]

[CUETools log; Date: 28.02.2020 9:37:36; Version: 2.1.4]
[AccurateRip ID: 000b7503-005ed8c4-7d07c50a] found.
Track [ CRC | V2 ] Status
01 [212661fb|0d2c46a2] (2+0/4) Accurately ripped
02 [83ca0765|de08d47b] (2+0/4) Accurately ripped
03 [f0acabb4|75700450] (2+0/4) Accurately ripped
04 [648742d8|1eb3e980] (2+0/4) Accurately ripped
05 [9b35f465|55faffe4] (2+0/4) Accurately ripped
06 [f8a790e2|685f9359] (2+0/4) Accurately ripped
07 [de6b1901|5d38e249] (2+0/4) Accurately ripped
08 [8692788b|072b06a1] (2+0/4) Accurately ripped
09 [3afe74d7|f70cf1a7] (2+0/4) Accurately ripped
10 [da24cc8e|b67d0fc0] (2+0/4) Accurately ripped
Offsetted by -1022:
01 [c8bda14f] (0/4) No match (V2 was not tested)
02 [406bf3f3] (0/4) No match (V2 was not tested)
03 [10d944e6] (0/4) No match (V2 was not tested)
04 [ee5f6afc] (0/4) No match (V2 was not tested)
05 [34fac127] (0/4) No match (V2 was not tested)
06 [88d0947d] (0/4) No match (V2 was not tested)
07 [0b3a46a9] (0/4) No match (V2 was not tested)
08 [a937d7e9] (0/4) No match (V2 was not tested)
09 [e14102ce] (0/4) No match (V2 was not tested)
10 [c44730d2] (0/4) No match (V2 was not tested)
Offsetted by 24:
01 [c47abacd] (0/4) No match
02 [e92d8795] (0/4) No match
03 [b462d580] (0/4) No match
04 [42fb8f78] (0/4) No match
05 [66f1bd7d] (0/4) No match (V2 was not tested)
06 [d9e36f03] (0/4) No match (V2 was not tested)
07 [b6be482f] (0/4) No match (V2 was not tested)
08 [83838cd5] (0/4) No match (V2 was not tested)
09 [0bd8cc52] (0/4) No match (V2 was not tested)
10 [59e7dfbe] (0/4) No match (V2 was not tested)

Track Peak [ CRC32 ] [W/O NULL]
– 100,0 [3C5AB300] [4512420A]
01 97,8 [89639C89] [B435F6EE]
02 95,5 [F438ED69] [522E5B5B]
03 96,7 [8ECABC85] [1C6E3FC5]
04 96,1 [7AA6B9AA] [58E19FD1]
05 94,0 [371DF9AE] [5E94A2BC]
06 98,3 [5CEA6677] [75F85EFF]
07 96,1 [F9E27B08] [20FDE340]
08 100,0 [E435794F] [76806366]
09 96,8 [EB9AD190] [2A67A3D9]
10 100,0 [3B6B1ACF] [7710B32F]


The Beatles - Dr. Ebbetts's US Stereo Albums Collection (1964-1970)

Tracklist CD19. 1970 - Let it be [AR 34001]:

01. Two Of Us [3:36]
02. Dig A Pony [3:53]
03. Across The Universe [3:46]
04. I Me Mine [2:25]
05. Dig It [0:50]
06. Let It Be [4:01]
07. Maggie Mae [0:39]
08. I've Got A Feeling [3:36]
09. One After 909 [2:52]
10. The Long And Winding Road [3:35]
11. For You Blue [2:32]
12. Get Back [3:07]

[CUETools log; Date: 28.02.2020 9:40:48; Version: 2.1.4]
[AccurateRip ID: 000ff553-00923efa-90082c0c] found.
Track [ CRC | V2 ] Status
01 [34924d1c|25bfad78] (0+0/2) No match
02 [2b0edfa3|297407e6] (0+0/2) No match
03 [0ce353f7|27a6081c] (0+0/2) No match
04 [18e7023f|fd9cd1d6] (0+0/2) No match
05 [ff6c2722|83564926] (0+0/2) No match
06 [582132db|4fc9fd0f] (0+0/2) No match
07 [a262be52|4c7c5472] (0+0/2) No match
08 [1eedff5b|baaaeee6] (0+0/2) No match
09 [89091d14|665c0b3e] (0+0/2) No match
10 [5f7771ec|81d1650b] (0+0/2) No match
11 [d582c44f|18b4c8f1] (0+0/2) No match
12 [81a8b4d5|4585a55a] (0+0/2) No match

Track Peak [ CRC32 ] [W/O NULL]
– 99,9 [81D9F780] [A5B1E8FA]
01 99,9 [7158C165] [837DE1A2]
02 97,9 [3F83B423] [30C4B735]
03 82,6 [389CAF60] [4DB8CC03]
04 95,2 [085BC0AC] [978DB515]
05 97,7 [E0E0734F] [42F28BC4]
06 95,9 [DCE94458] [009AFC4A]
07 99,2 [7D5087F8] [C67A1689]
08 88,0 [F5689E8D] [5EF88573]
09 96,9 [0980712F] [9839CE7E]
10 84,2 [75FD4E50] [5C2F41C2]
11 91,2 [E1F5C4E6] [BDD702EF]
12 97,5 [7D8E6BE6] [77B52846]


All thanks go to the original releaser

Beatles in my Blog

Download The Beatles - Dr. Ebbetts's US Stereo Albums Collection (1964-1970):