Subcategories

Clarence 'Gatemouth' Brown - Back To Bogalusa (2001) [Re-Up]

Posted By: Designol
Clarence 'Gatemouth' Brown - Back To Bogalusa (2001) [Re-Up]

Clarence 'Gatemouth' Brown - Back To Bogalusa (2001)
EAC | FLAC | Image (Cue&Log) ~ 375 Mb | Mp3 (CBR320) ~ 126 Mb | Scans ~ 61 Mb
Label: Blue Thumb/Universal | # 549 785-2 | Time: 00:54:51
Modern Electric Blues, Texas Blues

In 1995, septuagenarian Clarence "Gatemouth" Brown moved from the independent blues label Alligator to Verve, then to the jazz division of PolyGram, part of Universal. In his five albums for the label (the last two of them released on the Blue Thumb subsidiary) – The Man (1995), Long Way Home (1996), Gate Swings (1997), American Music, Texas Style (1999), and now Back to Bogalusa – he has been able to pursue his eclectic inclinations more fully than he did when his label bosses were trying to emphasize his blues guitar playing. The center of Brown's taste is post-World War II jump blues and R&B with a distinctly Southwestern feel. Tasty as his guitar playing is, he likes to add horns and even a bit of country fiddle to the mix. As its title indicates, Back to Bogalusa particularly investigates the Louisiana influences on this Pelican State native, notably on the tracks "Going Back to Louisiana," "Breaux Bridge Rag," "Bogalusa Boogie Man," and the Cajun-styled "Louisian'." He adds in some sympathetic songs by writers of a later generation, notably "Lie No Better," co-written by Delbert McClinton and Little Feat's "Dixie Chicken," co-written by Lowell George. And he sounds most at home in the funky instrumentals "Grape Jelly" and "Slap It." Brown has taken hits from blues critics for the perceived apostasy of his golden years, but with a singing and playing ability that belies his years he sounds like he's having a wonderful time.

Review by William Ruhlmann, Allmusic.com

Clarence 'Gatemouth' Brown - Back To Bogalusa (2001) [Re-Up]



Tracklist:

01. Folks Back Home (03:53)
02. It All Comes Back (04:33)
03. Same Old Blues (04:11)
04. Going Back To Louisiana (04:40)
05. Breaux Bridge Rag (03:05)
06. Why Are People Like That (03:23)
07. Grape Jelly (04:27)
08. Bogalusa Boogie Man (04:57)
09. Louisian' (03:38)
10. Dixie Chicken (04:26)
11. Lie No Better (04:07)
12. Slap It (04:33)
13. Dangerous Critter (04:53)


Exact Audio Copy V1.0 beta 3 from 29. August 2011

Отчёт EAC об извлечении, выполненном 6. ноября 2014, 23:08

Clarence 'Gatemouth' Brown / Back To Bogalusa

Дисковод: SONY CD-RW CRX230ED Adapter: 0 ID: 1

Режим чтения : Достоверность
Использование точного потока : Да
Отключение кэша аудио : Да
Использование указателей C2 : Нет

Коррекция смещения при чтении : 6
Способность читать области Lead-in и Lead-out : Нет
Заполнение пропущенных сэмплов тишиной : Да
Удаление блоков с тишиной в начале и конце : Нет
При вычислениях CRC использовались нулевые сэмплы : Да
Интерфейс : Встроенный Win32-интерфейс для Win NT/2000

Выходной формат : Внутренние WAV-операции
Формат сэмплов : 44.100 Гц; 16 бит; стерео


TOC извлечённого CD

Трек | Старт | Длительность | Начальный сектор | Конечный сектор
––––––––––––––––––––––––––––––––––-
1 | 0:00.00 | 3:53.25 | 0 | 17499
2 | 3:53.25 | 4:33.47 | 17500 | 38021
3 | 8:26.72 | 4:11.28 | 38022 | 56874
4 | 12:38.25 | 4:40.45 | 56875 | 77919
5 | 17:18.70 | 3:05.30 | 77920 | 91824
6 | 20:24.25 | 3:23.02 | 91825 | 107051
7 | 23:47.27 | 4:27.33 | 107052 | 127109
8 | 28:14.60 | 4:57.17 | 127110 | 149401
9 | 33:12.02 | 3:38.73 | 149402 | 165824
10 | 36:51.00 | 4:26.15 | 165825 | 185789
11 | 41:17.15 | 4:07.67 | 185790 | 204381
12 | 45:25.07 | 4:33.05 | 204382 | 224861
13 | 49:58.12 | 4:53.15 | 224862 | 246851


Характеристики диапазона извлечения и сообщения об ошибках

Выбранный диапазон

Имя файла F:\MusicCD\Torrent\Clarence 'Gatemouth' Brown - Back to Bogalusa\Clarence 'Gatemouth' Brown - Back To Bogalusa.wav

Пиковый уровень 100.0 %
Скорость извлечения 7.9 X
Качество диапазона 100.0 %
CRC теста 97C09EED
CRC копии 97C09EED
Копирование… OK

Ошибок не произошло


AccurateRip: сводка

Трек 1 : извлечено точно (доверие 5) [B957A3D9] (AR v2)
Трек 2 : извлечено точно (доверие 5) [D281D627] (AR v2)
Трек 3 : извлечено точно (доверие 5) [5D2A8BC7] (AR v2)
Трек 4 : извлечено точно (доверие 5) [9DBB80F8] (AR v2)
Трек 5 : извлечено точно (доверие 5) [F5457D42] (AR v2)
Трек 6 : извлечено точно (доверие 5) [006E813D] (AR v2)
Трек 7 : извлечено точно (доверие 5) [98D48233] (AR v2)
Трек 8 : извлечено точно (доверие 5) [6BAB5417] (AR v2)
Трек 9 : извлечено точно (доверие 5) [65841ABD] (AR v2)
Трек 10 : извлечено точно (доверие 5) [0D717F2B] (AR v2)
Трек 11 : извлечено точно (доверие 5) [39E4BF43] (AR v2)
Трек 12 : извлечено точно (доверие 5) [778AB583] (AR v2)
Трек 13 : извлечено точно (доверие 5) [5BFAB321] (AR v2)

Все треки извлечены точно

Конец отчёта

==== Контрольная сумма отчёта 4C6947AD766548CD3527121D41D640505D9817F98655AB7DF7878D05830B221F ====

foobar2000 1.2 / Dynamic Range Meter 1.1.1
log date: 2014-11-12 14:17:21

––––––––––––––––––––––––––––––––––––––––
Analyzed: Clarence 'Gatemouth' Brown / Back To Bogalusa
––––––––––––––––––––––––––––––––––––––––

DR Peak RMS Duration Track
––––––––––––––––––––––––––––––––––––––––
DR8 0.00 dB -9.06 dB 3:53 01-Folks Back Home
DR9 0.00 dB -10.43 dB 4:34 02-It All Comes Back
DR8 0.00 dB -10.19 dB 4:11 03-Same Old Blues
DR7 0.00 dB -8.27 dB 4:41 04-Going Back To Louisiana
DR8 0.00 dB -9.63 dB 3:05 05-Breaux Bridge Rag
DR8 0.00 dB -8.99 dB 3:23 06-Why Are People Like That
DR7 0.00 dB -8.05 dB 4:27 07-Grape Jelly
DR7 0.00 dB -8.57 dB 4:57 08-Bogalusa Boogie Man
DR7 0.00 dB -8.84 dB 3:39 09-Louisian'
DR8 0.00 dB -8.81 dB 4:26 10-Dixie Chicken
DR7 0.00 dB -8.41 dB 4:08 11-Lie No Better
DR7 0.00 dB -8.25 dB 4:33 12-Slap It
DR8 0.00 dB -9.63 dB 4:53 13-Dangerous Critter
––––––––––––––––––––––––––––––––––––––––

Number of tracks: 13
Official DR value: DR8

Samplerate: 44100 Hz
Channels: 2
Bits per sample: 16
Bitrate: 956 kbps
Codec: FLAC
================================================================================

Clarence 'Gatemouth' Brown - Back To Bogalusa (2001) [Re-Up]

Clarence 'Gatemouth' Brown - Back To Bogalusa (2001) [Re-Up]