Subcategories

Kelis - Food (2014) [Japanese Edition]

Posted By: gribovar
Kelis - Food (2014) [Japanese Edition]

Kelis - Food (2014) [Japanese Edition]
EAC Rip | FLAC (tracks+.cue+log) - 360 MB | MP3 CBR 320 kbps (LAME 3.93) - 126 MB | Covers - 90 MB
Genre: R&B, Soul, Pop | RAR 3% Rec. | Label: Beat Records (BRC-411)

Flesh Tone, Kelis' lone release through Interscope, brought about a pair of Top Five club hits. The creatively restless singer and songwriter nonetheless quickly moved on to working on her sixth album with a handful of U.K. garage and dubstep producers, including Skream, whose 2013 "Copy Cat" featured one of her most clever (and slightly creepy) turns. She changed course again and teamed up with TV on the Radio's Dave Sitek, whose Los Angeles house hosted loose recording sessions with an atmosphere that, according to Kelis, was "like a freakin' commune." Released on U.K. label Ninja Tune, Food sports a cover that doesn't seem nearly bright or colorful enough to reflect its sound - an eclectic and modern-sounding synthesis of classic pop and rhythm & blues with a lot of friskiness, some funk, and even a little twang. Strings, horns, and brass arranged by Todd Simon are a major part of the album and match up well with the slightly scratchy and simultaneously sportive and sincere qualities of Kelis' voice. The certified chef's references to food are abundant, but they're all used as a way to help illustrate a set that is principally about a blossoming relationship and positive reflection. The first line of the opening "Breakfast" - "I wanna say thank you, you've been more than just a man" - is more an indication of the album's theme than its song titles. Likewise, the shuffling and soaring "Jerk Ribs" contains no actual culinary content, rooted instead in a brilliantly drawn memory about her father, where "He said to look for melody in everything" is followed by instantly memorable horn riffs. On the rollicking Afro-beat-touched "Cobbler," Kelis coos, "You make me hit notes that I never sing," and it somehow seems totally justifiable to have a background singer trail the line with "She never sings these notes" and a Deniece Williams-like flourish. During the album's second half, the celebratory spirit is temporarily interrupted by a surprising acoustic diversion - a straightforward cover of folk love song "Bless the Telephone" (1971), originally written and recorded by another classification-defying artist, Labi Siffre. While it remains almost impossible to dissociate Kelis and early collaborators the Neptunes, it's more difficult imagining a better creative alliance - at this point in her career, at least - than the one that shines here.
Tracklist:
01. Breakfast
02. Jerk Ribs
03. Forever Be
04. Floyd
05. Runnin'
06. Hooch
07. Cobbler
08. Bless The Telephone
09. Friday Fish Fry
10. Change
11. Rumble
12. Biscuits N' Gravy
13. Dreamer
14. Rumble (Breach Remix) (Bonus track)

Total time: 53:37

Exact Audio Copy V1.1 from 23. June 2015

EAC extraction logfile from 11. August 2015, 21:24

Kelis / Food

Used drive : PLEXTOR DVDR PX-891SAW Adapter: 1 ID: 0

Read mode : Secure
Utilize accurate stream : Yes
Defeat audio cache : Yes
Make use of C2 pointers : No

Read offset correction : 48
Overread into Lead-In and Lead-Out : No
Fill up missing offset samples with silence : Yes
Delete leading and trailing silent blocks : No
Null samples used in CRC calculations : Yes
Used interface : Native Win32 interface for Win NT & 2000
Gap handling : Appended to previous track

Used output format : User Defined Encoder
Selected bitrate : 1024 kBit/s
Quality : High
Add ID3 tag : No
Command line compressor : C:\Program Files (x86)\Exact Audio Copy\Flac\flac.exe
Additional command line options : -8 -V -T "ARTIST=%artist%" -T "TITLE=%title%" -T "ALBUM=%albumtitle%" -T "DATE=%year%" -T "TRACKNUMBER=%tracknr%" -T "GENRE=%genre%" -T "PERFORMER=%albuminterpret%" -T "COMPOSER=%composer%" %haslyrics%–tag-from-file=LYRICS="%lyricsfile%"%haslyrics% -T "ALBUMARTIST=%albumartist%" -T "DISCNUMBER=%cdnumber%" -T "TOTALDISCS=%totalcds%" -T "TOTALTRACKS=%numtracks%" -T "COMMENT=%comment%" %source% -o %dest%


TOC of the extracted CD

Track | Start | Length | Start sector | End sector
––––––––––––––––––––––––––––-
1 | 0:00.00 | 4:20.19 | 0 | 19518
2 | 4:20.19 | 4:12.61 | 19519 | 38479
3 | 8:33.05 | 3:32.04 | 38480 | 54383
4 | 12:05.09 | 4:59.22 | 54384 | 76830
5 | 17:04.31 | 4:17.33 | 76831 | 96138
6 | 21:21.64 | 3:29.54 | 96139 | 111867
7 | 24:51.43 | 3:19.71 | 111868 | 126863
8 | 28:11.39 | 2:31.16 | 126864 | 138204
9 | 30:42.55 | 4:41.01 | 138205 | 159280
10 | 35:23.56 | 3:42.10 | 159281 | 175940
11 | 39:05.66 | 3:13.41 | 175941 | 190456
12 | 42:19.32 | 4:23.44 | 190457 | 210225
13 | 46:43.01 | 3:34.43 | 210226 | 226318
14 | 50:17.44 | 3:19.33 | 226319 | 241276


Track 1

Filename C:\Rips\01 - Breakfast.wav

Pre-gap length 0:00:02.00

Peak level 100.0 %
Extraction speed 3.3 X
Track quality 99.9 %
Test CRC ABF0703E
Copy CRC ABF0703E
Accurately ripped (confidence 1) [EDBB5147] (AR v2)
Copy OK

Track 2

Filename C:\Rips\02 - Jerk Ribs.wav

Pre-gap length 0:00:01.32

Peak level 100.0 %
Extraction speed 5.0 X
Track quality 100.0 %
Test CRC 6EE963C5
Copy CRC 6EE963C5
Accurately ripped (confidence 1) [CB4AD57E] (AR v2)
Copy OK

Track 3

Filename C:\Rips\03 - Forever Be.wav

Peak level 100.0 %
Extraction speed 5.4 X
Track quality 100.0 %
Test CRC 5A8DF8FE
Copy CRC 5A8DF8FE
Accurately ripped (confidence 1) [A6F0A3E6] (AR v2)
Copy OK

Track 4

Filename C:\Rips\04 - Floyd.wav

Pre-gap length 0:00:01.58

Peak level 100.0 %
Extraction speed 6.0 X
Track quality 100.0 %
Test CRC F411AE63
Copy CRC F411AE63
Accurately ripped (confidence 1) [102E648C] (AR v2)
Copy OK

Track 5

Filename C:\Rips\05 - Runnin'.wav

Pre-gap length 0:00:02.06

Peak level 100.0 %
Extraction speed 6.3 X
Track quality 100.0 %
Test CRC D5606CA5
Copy CRC D5606CA5
Accurately ripped (confidence 1) [F8534DCE] (AR v2)
Copy OK

Track 6

Filename C:\Rips\06 - Hooch.wav

Peak level 100.0 %
Extraction speed 6.5 X
Track quality 100.0 %
Test CRC 65FA0F1D
Copy CRC 65FA0F1D
Accurately ripped (confidence 1) [E2E4B8D1] (AR v2)
Copy OK

Track 7

Filename C:\Rips\07 - Cobbler.wav

Pre-gap length 0:00:01.16

Peak level 100.0 %
Extraction speed 6.7 X
Track quality 100.0 %
Test CRC 8210CC05
Copy CRC 8210CC05
Accurately ripped (confidence 1) [866274A7] (AR v2)
Copy OK

Track 8

Filename C:\Rips\08 - Bless The Telephone.wav

Pre-gap length 0:00:01.38

Peak level 86.2 %
Extraction speed 6.6 X
Track quality 100.0 %
Test CRC 3431DFAF
Copy CRC 3431DFAF
Accurately ripped (confidence 1) [5AC41A90] (AR v2)
Copy OK

Track 9

Filename C:\Rips\09 - Friday Fish Fry.wav

Pre-gap length 0:00:01.22

Peak level 100.0 %
Extraction speed 7.5 X
Track quality 100.0 %
Test CRC D3D733C8
Copy CRC D3D733C8
Accurately ripped (confidence 1) [15F3F50B] (AR v2)
Copy OK

Track 10

Filename C:\Rips\10 - Change.wav

Pre-gap length 0:00:01.76

Peak level 100.0 %
Extraction speed 7.5 X
Track quality 100.0 %
Test CRC B099B404
Copy CRC B099B404
Accurately ripped (confidence 1) [E455A2EB] (AR v2)
Copy OK

Track 11

Filename C:\Rips\11 - Rumble.wav

Pre-gap length 0:00:01.24

Peak level 100.0 %
Extraction speed 4.9 X
Track quality 99.9 %
Test CRC CBB41ECE
Copy CRC CBB41ECE
Accurately ripped (confidence 1) [17D666E4] (AR v2)
Copy OK

Track 12

Filename C:\Rips\12 - Biscuits N' Gravy.wav

Pre-gap length 0:00:01.70

Peak level 100.0 %
Extraction speed 5.7 X
Track quality 99.9 %
Test CRC 51BE339E
Copy CRC 51BE339E
Accurately ripped (confidence 1) [8BF1D95D] (AR v2)
Copy OK

Track 13

Filename C:\Rips\13 - Dreamer.wav

Pre-gap length 0:00:01.44

Peak level 98.3 %
Extraction speed 8.2 X
Track quality 100.0 %
Test CRC 2285B454
Copy CRC 2285B454
Accurately ripped (confidence 1) [54588D6A] (AR v2)
Copy OK

Track 14

Filename C:\Rips\14 - Rumble (Breach Remix).wav

Pre-gap length 0:00:07.06

Peak level 96.6 %
Extraction speed 8.3 X
Track quality 100.0 %
Test CRC E557564C
Copy CRC E557564C
Accurately ripped (confidence 1) [F9E6A3EE] (AR v2)
Copy OK


All tracks accurately ripped

No errors occurred

End of status report

–– CUETools DB Plugin V2.1.6

[CTDB TOCID: 2tf6jQrVWx9g_STw.5.WYifFd44-] disk not present in database
Submit result: 2tf6jQrVWx9g_STw.5.WYifFd44- has been uploaded


==== Log checksum A78916F47976DED953054C2032E766D988D2C012C3DFDCBB944C8C72AC3500F6 ====

[CUETools log; Date: 18.10.2020 1:47:30; Version: 2.1.4]
[CTDB TOCID: 2tf6jQrVWx9g_STw.5.WYifFd44-] found.
Track | CTDB Status
1 | (3/3) Accurately ripped
2 | (3/3) Accurately ripped
3 | (3/3) Accurately ripped
4 | (3/3) Accurately ripped
5 | (3/3) Accurately ripped
6 | (3/3) Accurately ripped
7 | (3/3) Accurately ripped
8 | (3/3) Accurately ripped
9 | (3/3) Accurately ripped
10 | (3/3) Accurately ripped
11 | (3/3) Accurately ripped
12 | (3/3) Accurately ripped
13 | (3/3) Accurately ripped
14 | (3/3) Accurately ripped
[AccurateRip ID: 001c783f-012cbc71-b50c910e] found.
Track [ CRC | V2 ] Status
01 [b66929cc|edbb5147] (0+2/2) Accurately ripped
02 [16704534|cb4ad57e] (0+2/2) Accurately ripped
03 [0256bec3|a6f0a3e6] (0+2/2) Accurately ripped
04 [0c4cfa4b|102e648c] (0+2/2) Accurately ripped
05 [d8b3c558|f8534dce] (0+2/2) Accurately ripped
06 [9f4bf607|e2e4b8d1] (0+2/2) Accurately ripped
07 [2cb8d7dc|866274a7] (0+2/2) Accurately ripped
08 [cc93d825|5ac41a90] (0+2/2) Accurately ripped
09 [809206c2|15f3f50b] (0+2/2) Accurately ripped
10 [16fea8de|e455a2eb] (0+2/2) Accurately ripped
11 [c191379c|17d666e4] (0+2/2) Accurately ripped
12 [8e1bd535|8bf1d95d] (0+2/2) Accurately ripped
13 [78f3a03b|54588d6a] (0+2/2) Accurately ripped
14 [e28a93f7|f9e6a3ee] (0+2/2) Accurately ripped

Track Peak [ CRC32 ] [W/O NULL] [ LOG ]
– 100,0 [3EBEFF4D] [C70E5740]
01 100,0 [ABF0703E] [C1460CFF] CRC32
02 100,0 [6EE963C5] [A2AD1F0F] CRC32
03 100,0 [5A8DF8FE] [AD932A8C] CRC32
04 100,0 [F411AE63] [07AD9E19] CRC32
05 100,0 [D5606CA5] [EFACD32C] CRC32
06 100,0 [65FA0F1D] [96714571] CRC32
07 100,0 [8210CC05] [347AF217] CRC32
08 86,2 [3431DFAF] [0BE24761] CRC32
09 100,0 [D3D733C8] [8CA48D75] CRC32
10 100,0 [B099B404] [E97D6A7C] CRC32
11 100,0 [CBB41ECE] [A888D8D2] CRC32
12 100,0 [51BE339E] [0196C9E1] CRC32
13 98,3 [2285B454] [06D50494] CRC32
14 96,6 [E557564C] [18F739AA] CRC32

Thanks to thezabs