Subcategories

Led Zeppelin ‎- The Garden Tapes: The Song Remains The Same Concerts (Expanded And Revisited Collector's Edition) (2015)

Posted By: v3122
Led Zeppelin ‎- The Garden Tapes: The Song Remains The Same Concerts (Expanded And Revisited Collector's Edition) (2015)

Led Zeppelin ‎- The Garden Tapes: The Song Remains The Same Concerts (Expanded And Revisited Collector's Edition) (2015)
CDRip | Flac(Image) + Cue, no Log & MP3 CBR 320Kbps
18CD | Empress Valley Supreme Disc, EVSD 805~822 | ~ 6066 or 2592 Mb
Blues Rock, Hard Rock, Classic Rock | Unofficial Release

The Garden Tapes: The Song Remains The Same Concerts (Expanded And Revisited Collector's Edition) is Empress Valley's newest deluxe title collecting all available sources from July 27th to 29th, 1973 recorded during final thre nights of ninth US tour in New York. This large set covering both audience and soundboard sources for all three nights, also adding so called bonus discs to the July 28th and July 29th dates from alternate board feed. Having in mind these dates are one of the most important live dates in group's live repertoire and fact for the very first time all dates are sourced from upgraded and previously unreleased sources making this production a very interesting and worthy gem.
Led Zeppelin ‎- The Garden Tapes: The Song Remains The Same Concerts (Expanded And Revisited Collector's Edition) (2015):

ROCKING THE BIG APPLE: FIRST NIGHT AT THE GARDEN (VERSION A) New York July 27th, 1973
Tracklist CD1:

1. The Rain Song
2. Dazed And Confused
3. Stairway To Heaven

[CUETools log; Date: 28.08.2020 14:51:24; Version: 2.1.4]
[AccurateRip ID: 0006900d-00168a63-170b9203] found.
Track [ CRC | V2 ] Status
01 [7726a2e9|bd06d11a] (0+1/1) Accurately ripped
02 [0a59a7bc|6dccae7e] (0+1/1) Accurately ripped
03 [a95f2243|575e5e76] (0+1/1) Accurately ripped

Track Peak [ CRC32 ] [W/O NULL]
– 69,6 [67307ACE] [E62AD98D]
01 69,6 [BF6719C5] [4A68BDA1]
02 61,0 [4C9E7690] [40A16B78]
03 55,4 [B671F0D7] [77B37768]


Tracklist CD2:

1. Moby Dick
2. Heartbreaker
3. Whole Lotta Love
4. Audience
5. The Ocean
6. Audience

[CUETools log; Date: 28.08.2020 14:54:13; Version: 2.1.4]
[AccurateRip ID: 00113d32-00556c3a-590ccb06] found.
Track [ CRC | V2 ] Status
01 [c1127549|ccda7402] (0+1/1) Accurately ripped
02 [d3abed57|f05bfcfc] (0+1/1) Accurately ripped
03 [3c674d4e|5f3ffb37] (0+1/1) Accurately ripped
04 [7e1c32e7|77c48ee2] (0+1/1) Accurately ripped
05 [b74b92b5|93be4ea5] (0+1/1) Accurately ripped
06 [1d9da5cf|1a118960] (0+1/1) Accurately ripped

Track Peak [ CRC32 ] [W/O NULL]
– 70,3 [FD860908] [4999DB53]
01 70,3 [1330A437] [6F19302B]
02 69,4 [4E25C25B] [FF62438A]
03 62,9 [E7112731] [19D331BC]
04 56,3 [9E1D3FA3] [89C673C8]
05 62,3 [530604B5] [7E466DC3]
06 52,3 [6E37AFE7] [C5CFE49F]


ROCKING THE BIG APPLE: FIRST NIGHT AT THE GARDEN (VERSION B) New York July 27th, 1973
Tracklist CD3:

1. The Rain Song
2. Dazed And Confused
3. Stairway To Heaven

[CUETools log; Date: 28.08.2020 15:00:25; Version: 2.1.4]
[AccurateRip ID: 00068fa5-00168934-150b9203] found.
Track [ CRC | V2 ] Status
01 [9f7c066c|8e59cdbf] (0+1/1) Accurately ripped
02 [4d5f86f9|4178e856] (0+1/1) Accurately ripped
03 [9b7c59a0|a151fe29] (0+1/1) Accurately ripped

Track Peak [ CRC32 ] [W/O NULL]
– 82,9 [5FB26685] [74D6AB8D]
01 69,6 [AE550BC6] [BB2F62F3]
02 74,0 [D4705DA4] [B3C67C58]
03 82,9 [B9E0DD28] [8B0E99AA]


Tracklist CD4:

1. Moby Dick
2. Heartbreaker
3. Whole Lotta Love
4. Audience
5. The Ocean
6. Audience

[CUETools log; Date: 28.08.2020 15:03:09; Version: 2.1.4]
[AccurateRip ID: 0011436c-005585b4-5a0ccd06] found.
Track [ CRC | V2 ] Status
01 [709c0ba0|12a62fb4] (0+1/1) Accurately ripped
02 [044be69d|857abfb9] (0+1/1) Accurately ripped
03 [b6ec88b4|a2755bc5] (0+1/1) Accurately ripped
04 [4c82eea0|0f8b950f] (0+1/1) Accurately ripped
05 [b30a3b3b|a840f60f] (0+1/1) Accurately ripped
06 [70ff57f1|19e6998f] (0+1/1) Accurately ripped

Track Peak [ CRC32 ] [W/O NULL]
– 70,7 [946FAC6D] [1C450815]
01 70,5 [1CFD297C] [15B43B90]
02 69,6 [A6AE5F25] [99ABADFA]
03 70,7 [E7E32766] [F4D7679D]
04 51,3 [D17883D5] [4B9CE219]
05 66,5 [DF95D650] [8AEAF95C]
06 52,3 [2DA927D1] [D9D25A74]


ROCKING THE BIG APPLE: FIRST NIGHT AT THE GARDEN (BONUS DISK) New York July 27th, 1973
Tracklist CD5:

1. Moby Dick
2. Heartbreaker
3. Whole Lotta Love
4. Audience
5. The Ocean
6. Audience

[CUETools log; Date: 28.08.2020 15:06:36; Version: 2.1.4]
[AccurateRip ID: 0010e876-0053dff5-470c9406] found.
Track [ CRC | V2 ] Status
01 [0c0a3617|d820d404] (0+1/1) Accurately ripped
02 [e2f979d3|76c5b700] (0+1/1) Accurately ripped
03 [2ed32f24|04c87b79] (0+1/1) Accurately ripped
04 [7a4a1449|999a465e] (0+1/1) Accurately ripped
05 [78f3735a|e8eb6643] (0+1/1) Accurately ripped
06 [a4bf83f8|98bce55d] (0+1/1) Accurately ripped

Track Peak [ CRC32 ] [W/O NULL]
– 74,4 [594F35A7] [1F845B97]
01 73,8 [2D90B5E2] [CB79C3CA]
02 69,5 [A448911F] [B7CDA0DC]
03 74,4 [AC1F676F] [D343B50A]
04 62,6 [21D71808] [B37A9A05]
05 65,1 [ECA17D50] [BCFFDBDA]
06 52,3 [741D1191] [83122672]


TAKING THE BUILDING INTO STRATOSPHERE: SECOND NIGHT AT THE GARDEN (VERSION A) New York July 28th, 1973
Tracklist CD6:

1. Rock And Roll
2. Celebration Day
3. Black Dog
4. Over The Hills And Far Away
5. Misty Mountain Hop
6. Since I've Been Loving You
7. No Quarter
8. The Song Remains The Same
9. The Rain Song

[CUETools log; Date: 28.08.2020 15:22:42; Version: 2.1.4]
[AccurateRip ID: 001409ca-00ab65d1-6c0f290a] found.
Track [ CRC | V2 ] Status
01 [4ed5a943|0555f455] (0+1/1) Accurately ripped
02 [8a8f34d7|7d63ed91] (0+1/1) Accurately ripped
03 [ad1a7d45|eaa8ac0e] (0+1/1) Accurately ripped
04 [602f4d08|ff08951e] (0+1/1) Accurately ripped
05 [5113800e|814c2ca7] (0+1/1) Accurately ripped
06 [0f07a1f5|3ae39893] (0+1/1) Accurately ripped
07 [f621c136|0b614c07] (0+1/1) Accurately ripped
08 [93a72388|7ae9af69] (0+1/1) Accurately ripped
09 [cde5128b|3f4d5091] (0+1/1) Accurately ripped
10 [409b4427|c6ad5432] (0+1/1) Accurately ripped

Track Peak [ CRC32 ] [W/O NULL]
– 78,5 [3249C74D] [EC84F0AE]
01 38,1 [767BB021] [5FC09ECE]
02 56,4 [61EA6977] [AE1D6A72]
03 54,7 [958C444B] [1ADD6E57]
04 56,3 [7E3D6D33] [48A18AAA]
05 57,6 [65EBFE73] [CB85D082]
06 52,1 [DFC425F5] [CD454A63]
07 72,9 [9CEF5302] [8AF21C30]
08 78,5 [5DB778CE] [81BA683F]
09 59,6 [983C0F81] [AFA36B66]
10 62,9 [EA189120] [7AD1599B]


Tracklist CD7:

1. Dazed And Confused
2. Stairway To Heaven
3. Moby Dick

[CUETools log; Date: 28.08.2020 15:27:44; Version: 2.1.4]
[AccurateRip ID: 000a4d49-0021ba1a-24112f03] found.
Track [ CRC | V2 ] Status
01 [e1ca68d4|94ee7a5c] (0+1/1) Accurately ripped
02 [822feb30|db5571ab] (0+1/1) Accurately ripped
03 [401b8a32|b39691ab] (0+1/1) Accurately ripped

Track Peak [ CRC32 ] [W/O NULL]
– 73,1 [1084E455] [BE17771D]
01 69,7 [74579D44] [F912BBB8]
02 59,8 [68EDDAD8] [A45B75FF]
03 73,1 [1D14E4D3] [804A4295]


Tracklist CD8:

1. Heartbreaker
2. Whole Lotta Love
3. Audience
4. The Ocean
5. Audience

[CUETools log; Date: 28.08.2020 15:31:14; Version: 2.1.4]
[AccurateRip ID: 0008220c-00246c2c-3d077a05] found.
Track [ CRC | V2 ] Status
01 [b41ca3ca|67d8ad9c] (0+1/1) Accurately ripped
02 [4946c68e|a851a034] (0+1/1) Accurately ripped
03 [4b7eb763|42687a25] (0+1/1) Accurately ripped
04 [fd4f6cee|b249aed3] (0+1/1) Accurately ripped
05 [3737c350|210e6e7e] (0+1/1) Accurately ripped

Track Peak [ CRC32 ] [W/O NULL]
– 72,5 [043EE760] [69AD6034]
01 65,8 [D777BCEE] [6DF1CC46]
02 60,3 [AEF346AD] [B1B57294]
03 72,5 [03EC1B11] [9FFC431C]
04 58,9 [68E9D547] [EB04F768]
05 14,5 [1602F586] [059F0ECE]


TAKING THE BUILDING INTO STRATOSPHERE: SECOND NIGHT AT THE GARDEN (VERSION B) New York July 28th, 1973
Tracklist CD9:

1. Rock And Roll
2. Celebration Day
3. Black Dog
4. Over The Hills And Far Away
5. Misty Mountain Hop
6. Since I've Been Loving You
7. No Quarter
8. The Song Remains The Same
9. The Rain Song

[CUETools log; Date: 28.08.2020 15:33:33; Version: 2.1.4]
[AccurateRip ID: 0014157e-00abe6f4-7c0f380a] found.
Track [ CRC | V2 ] Status
01 [1ae23747|b5d5bcf5] (0+1/1) Accurately ripped
02 [952e7d8f|ebfbc621] (0+1/1) Accurately ripped
03 [e949b1f4|71807040] (0+1/1) Accurately ripped
04 [c29300f2|58b5ad19] (0+1/1) Accurately ripped
05 [8cd3add4|9a8810dd] (0+1/1) Accurately ripped
06 [02f8b5d4|86698276] (0+1/1) Accurately ripped
07 [cd4c4b46|ae7bed18] (0+1/1) Accurately ripped
08 [ffee1db7|338d79b4] (0+1/1) Accurately ripped
09 [26603c87|b1386a52] (0+1/1) Accurately ripped
10 [151313bb|5f157113] (0+1/1) Accurately ripped

Track Peak [ CRC32 ] [W/O NULL]
– 69,5 [F7865B15] [0C9B199A]
01 32,9 [1E1196FB] [8108AF96]
02 66,0 [AE550AF8] [F70870CB]
03 61,4 [AAF6C19A] [E632D65E]
04 60,1 [734D109A] [23D7E84C]
05 64,1 [A93991DE] [8DAFC164]
06 61,2 [B8BFBE7B] [0B365422]
07 61,6 [44148D65] [A6F33EB0]
08 69,5 [ECDC8975] [B7849FCE]
09 64,2 [00083EB7] [2EB346E2]
10 62,8 [8BFDD6EC] [0F4C873D]


Tracklist CD10:

1. Dazed And Confused
2. Stairway To Heaven
3. Moby Dick

[CUETools log; Date: 28.08.2020 15:40:52; Version: 2.1.4]
[AccurateRip ID: 000a49de-0021ad7d-2a112503] found.
Track [ CRC | V2 ] Status
01 [b10ecdd4|4e5e1c93] (0+1/1) Accurately ripped
02 [dc88f8e1|04de2a2c] (0+1/1) Accurately ripped
03 [8264dec8|24a4fc2b] (0+1/1) Accurately ripped

Track Peak [ CRC32 ] [W/O NULL]
– 64,6 [40ABE052] [CB4B41BB]
01 64,2 [9EEBE1BC] [8DE49146]
02 64,5 [D69AF8F7] [86A7A5A3]
03 64,6 [8C18B0F5] [89F6B466]


Tracklist CD11:

1. Heartbreaker
2. Whole Lotta Love
3. Audience
4. The Ocean
5. Audience

[CUETools log; Date: 28.08.2020 15:53:21; Version: 2.1.4]
[AccurateRip ID: 00081a45-00244411-3b077405] found.
Track [ CRC | V2 ] Status
01 [4c75d20c|4c768808] (0+1/1) Accurately ripped
02 [3494d983|6c0a7526] (0+1/1) Accurately ripped
03 [4533ca9e|9a550524] (0+1/1) Accurately ripped
04 [aef6f79e|57390b68] (0+1/1) Accurately ripped
05 [51e2e927|3b6b7e9a] (0+1/1) Accurately ripped

Track Peak [ CRC32 ] [W/O NULL]
– 74,7 [13F5F6D5] [B52AF9F9]
01 71,4 [C39BDE16] [4FC3278C]
02 74,7 [B66AFFE0] [3575A979]
03 57,4 [0806DB7A] [7AE41465]
04 70,6 [619D224A] [7B373824]
05 7,5 [B21022B7] [DB205B12]


TAKING THE BUILDING INTO STRATOSPHERE: SECOND NIGHT AT THE GARDEN (BONUS DISK) New York July 28th, 1973
Tracklist CD12:

1. Moby Dick
2. Heartbreaker
3. Whole Lotta Love
4. Audience
5. The Ocean
6. Audience

[CUETools log; Date: 28.08.2020 15:55:36; Version: 2.1.4]
[AccurateRip ID: 001433f6-0062b843-530e5106] found.
Track [ CRC | V2 ] Status
01 [202fd34b|d3bf23f1] (0+1/1) Accurately ripped
02 [928f9312|3579349f] (0+1/1) Accurately ripped
03 [5d342917|0f8adba2] (0+1/1) Accurately ripped
04 [ed7018c0|c8bd5a86] (0+1/1) Accurately ripped
05 [6a8d80cf|5a324ab5] (0+1/1) Accurately ripped
06 [d343f006|5ed7a208] (0+1/1) Accurately ripped

Track Peak [ CRC32 ] [W/O NULL]
– 70,5 [D0B7856D] [FD69D154]
01 70,5 [A518FD40] [096269B1]
02 61,7 [8918F988] [82E1E39C]
03 62,2 [564743C1] [8E5B29B5]
04 48,2 [2BF38503] [FA55BDBB]
05 63,1 [34A8A261] [F1E3313E]
06 19,9 [25428942] [4BAB0222]


FINAL MAGIK: THIRD NIGHT AT THE GARDEN (VERSION A) New York July 29th, 1973
Tracklist CD13:

1. Rock And Roll
2. Celebration Day
3. Black Dog
4. Over The Hills And Far Away
5. Misty Mountain Hop
6. Since I've Been Loving You
7. No Quarter
8. The Song Remains The Same
9. The Rain Song

[CUETools log; Date: 28.08.2020 16:08:17; Version: 2.1.4]
[AccurateRip ID: 00134632-00a68c9b-800f0a0a] found.
Track [ CRC | V2 ] Status
01 [c0e25d14|8db77c88] (0+1/1) Accurately ripped
02 [ec6a59bc|7130505d] (0+1/1) Accurately ripped
03 [b2e8f8ca|446de9cc] (0+1/1) Accurately ripped
04 [62f3e847|805dc2ac] (0+1/1) Accurately ripped
05 [b3d9ba47|c2397b1d] (0+1/1) Accurately ripped
06 [8af54050|87b9c6cc] (0+1/1) Accurately ripped
07 [3ebe8398|54647e73] (0+1/1) Accurately ripped
08 [78b7964d|3d43274c] (0+1/1) Accurately ripped
09 [1844df6d|0ed68f50] (0+1/1) Accurately ripped
10 [947f709f|b1c4533a] (0+1/1) Accurately ripped

Track Peak [ CRC32 ] [W/O NULL]
– 66,4 [BF0A404B] [B8095659]
01 56,6 [66C9177C] [A6E0F360]
02 65,3 [3083B73D] [6064A4F5]
03 65,4 [4BE5A713] [CD77DB9A]
04 63,8 [E68978EF] [CF118A9D]
05 66,2 [F5CE18E1] [D003B5D0]
06 63,4 [CBDF2B85] [AD36BFFB]
07 66,4 [48AF4C40] [8DA606EB]
08 66,3 [B5CE8BCF] [789AF663]
09 66,4 [457AE3AC] [B250BE53]
10 60,4 [0F6A178C] [08444564]


Tracklist CD14:

1. Dazed And Confused
2. Stairway To Heaven
3. Moby Dick

[CUETools log; Date: 28.08.2020 16:12:30; Version: 2.1.4]
[AccurateRip ID: 000a81fb-00223464-1a111d03] found.
Track [ CRC | V2 ] Status
01 [daececf6|897c6fe8] (0+1/1) Accurately ripped
02 [f65bf921|1bc3f38c] (0+1/1) Accurately ripped
03 [2dbe3574|32ee0bc6] (0+1/1) Accurately ripped

Track Peak [ CRC32 ] [W/O NULL]
– 73,7 [9AA1C8B1] [9CF34DCD]
01 73,7 [A8BD1333] [A8EBC57C]
02 63,7 [78085789] [5BD3056B]
03 64,8 [D2E9A2B6] [D6D833B2]


Tracklist CD15:

1. Heartbreaker
2. Whole Lotta Love
3. Audience
4. The Ocean
5. Audience
6. Organ Solo
7. Thank You

[CUETools log; Date: 28.08.2020 16:16:13; Version: 2.1.4]
[AccurateRip ID: 000fa412-0058ad44-5e0b6807] found.
Track [ CRC | V2 ] Status
01 [35d5f15e|4dce789e] (0+1/1) Accurately ripped
02 [e7254e7c|e42dfa17] (0+1/1) Accurately ripped
03 [f306e5e5|957b07a7] (0+1/1) Accurately ripped
04 [dc435689|0abc9092] (0+1/1) Accurately ripped
05 [ad2b9b6f|be813e38] (0+1/1) Accurately ripped
06 [fcb30613|5656c6d1] (0+1/1) Accurately ripped
07 [489d500a|774eec6c] (0+1/1) Accurately ripped

Track Peak [ CRC32 ] [W/O NULL]
– 67,8 [84A02642] [9CBF59BD]
01 65,6 [4C52741E] [E771F9C7]
02 61,0 [018ACE53] [A4F8E50C]
03 56,9 [095244FB] [E7304994]
04 61,2 [B5453E99] [CE71911E]
05 53,9 [5BC72246] [0664DCFE]
06 62,3 [0BDE1200] [A687E309]
07 67,8 [90AF69F9] [E5BAB158]


FINAL MAGIK: THIRD NIGHT AT THE GARDEN (VERSION B) New York July 29th, 1973
Tracklist CD16:

1. Rock And Roll
2. Celebration Day
3. Black Dog
4. Over The Hills And Far Away
5. Misty Mountain Hop
6. Since I've Been Loving You
7. No Quarter
8. The Song Remains The Same
9. The Rain Song

[CUETools log; Date: 28.08.2020 16:18:46; Version: 2.1.4]
[AccurateRip ID: 00133738-00a5b14a-830edf0a] found.
Track [ CRC | V2 ] Status
01 [369c123d|a1502d07] (0+1/1) Accurately ripped
02 [3ee49a7b|96cc5c70] (0+1/1) Accurately ripped
03 [d84d95a3|364d9aa8] (0+1/1) Accurately ripped
04 [698f2003|f612eaa8] (0+1/1) Accurately ripped
05 [6043ec2c|c1465c15] (0+1/1) Accurately ripped
06 [0df77b7c|a484e056] (0+1/1) Accurately ripped
07 [eb5e226e|fa988fde] (0+1/1) Accurately ripped
08 [53c8c987|cbe114db] (0+1/1) Accurately ripped
09 [aa3977a7|33ea63ad] (0+1/1) Accurately ripped
10 [0dbd6a60|0c252611] (0+1/1) Accurately ripped

Track Peak [ CRC32 ] [W/O NULL]
– 81,1 [D43B7A09] [D1431E5C]
01 53,8 [383B4C49] [B34E0A75]
02 60,6 [F13CDD95] [B703551B]
03 59,9 [DD6A5A78] [EC4F929B]
04 67,4 [C60BCDA9] [BFB26A21]
05 64,8 [14FE7591] [278DBF31]
06 63,1 [74B727E3] [EB7A1150]
07 67,2 [9CF9415E] [46A7B31E]
08 81,1 [56C2D7F1] [2DCD45A7]
09 63,8 [97EC0DB8] [E47A5F58]
10 66,1 [601FFA08] [A33EDB98]


Tracklist CD17:

1. Dazed And Confused
2. Stairway To Heaven
3. Moby Dick

[CUETools log; Date: 28.08.2020 16:21:50; Version: 2.1.4]
[AccurateRip ID: 000a7e18-00223d2b-19114603] found.
Track [ CRC | V2 ] Status
01 [f2cdc4da|850b1967] (0+1/1) Accurately ripped
02 [76cfd12a|e036da02] (0+1/1) Accurately ripped
03 [1652b7aa|dff148ed] (0+1/1) Accurately ripped

Track Peak [ CRC32 ] [W/O NULL]
– 73,1 [18BBEB6A] [9CDBE3A1]
01 65,4 [BFDD6C1A] [48F01B5D]
02 69,9 [E33F20EE] [8BB31467]
03 73,1 [7C01FBCD] [E8DE3719]


Tracklist CD18:

1. Heartbreaker
2. Whole Lotta Love
3. Audience
4. The Ocean
5. Audience
6. Organ Solo
7. Thank You

[CUETools log; Date: 28.08.2020 16:26:01; Version: 2.1.4]
[AccurateRip ID: 000fab77-0058f391-590b7307] found.
Track [ CRC | V2 ] Status
01 [4127f7b2|8fe4a35f] (0+1/1) Accurately ripped
02 [630d609c|39f16617] (0+1/1) Accurately ripped
03 [a84387f5|f9e66c5d] (0+1/1) Accurately ripped
04 [6a0f7cde|d2d80f0d] (0+1/1) Accurately ripped
05 [e56f79b0|0401d98c] (0+1/1) Accurately ripped
06 [26a39695|31d031eb] (0+1/1) Accurately ripped
07 [546045a7|a23a7536] (0+1/1) Accurately ripped

Track Peak [ CRC32 ] [W/O NULL]
– 69,3 [64B9FB33] [467466D0]
01 65,1 [D8225696] [D0D0A62F]
02 69,3 [CC102DE4] [0464B482]
03 65,6 [1D6209AC] [60D88077]
04 66,2 [B9685334] [ADB5A2D3]
05 47,3 [D55945A3] [1D3B7CFB]
06 42,7 [2378DF27] [12D68A64]
07 68,9 [D94B56C8] [B338F6AA]


All thanks go to the original releser

Led Zeppelin in my Blog

Download Led Zeppelin ‎- The Garden Tapes: The Song Remains The Same Concerts (Expanded And Revisited Collector's Edition) (2015):