Subcategories

Oscar Peterson, Harry Edison - Oscar Peterson & Harry Edison (1975) {Pablo}

Posted By: tiburon
Oscar Peterson, Harry Edison - Oscar Peterson & Harry Edison (1975) {Pablo}

Oscar Peterson, Harry Edison - Oscar Peterson & Harry Edison (1975) {Pablo}
EAC 0.95b3 | FLAC Image | Cue+Log | Full Scans 600dpi | 275MB + 5% Recovery
MP3 CBR 320 Kbps | 135MB + 5% Recovery
Genre: Jazz, Bop

Sweets Edison and Oscar Peterson have a recording history that dates back to the early 50's when they were both mainstays of the Norman Granz stable - Jazz at the Philharmonic. But most of that history is rooted in small swing ensembles that included Peterson's trio and any of several of Edison's cohorts from Lester Young to Ben Webster. This recording has them in an altogether different setting playing off one and other's strengths in a series of standard duets. While both are past peak performance-wise by this mid-70's recording date, there's no real evidence of a lack of power or virtuosity and the solos on each cut are inventive and technically interesting. The material is well-chosen, mostly standard ballads but both Edison and Peterson's background in blues-laden swing comes through loud and clear.
Track List
01. Easy Living (6:14)
02. Days Of Wine And Roses (4:55)
03. Gee Baby, Ain't I Good To You (6:07)
04. Basie (7:25)
05. Mean To Me (6:36)
06. Signify (5:10)
07. Willow Weep For Me (4:42)
08. Man I Love, The (4:36)
09. You Go To My Head (5:29)

musicians
Oscar Peterson - piano
Harry Edison - trumpet

Produced by Norman Granz


EAC extraction logfile from 6. August 2006, 9:19 for CD
Oscar Peterson / Oscar Peterson & Harry Edison

Used drive : HL-DT-STDVD-ROM GDR8163B Adapter: 0 ID: 1
Read mode : Secure with NO C2, accurate stream, disable cache
Read offset correction : 102
Overread into Lead-In and Lead-Out : Yes

Used output format : Internal WAV Routines
44.100 Hz; 16 Bit; Stereo

Other options :
Fill up missing offset samples with silence : Yes
Delete leading and trailing silent blocks : No
Installed external ASPI interface


Range status and errors
Selected range
Filename C:\test\Oscar Peterson - Oscar Peterson & Harry Edison.wav

Peak level 99.8 %
Range quality 100.0 %
CRC 97404445
Copy OK

No errors occured

End of status report


foobar2000 1.3.13 / Dynamic Range Meter 1.1.1
log date: 2020-10-18 11:20:53

––––––––––––––––––––––––––––––––––––––––
Analyzed: Oscar Peterson, Harry Edison / Oscar Peterson & Harry Edison
––––––––––––––––––––––––––––––––––––––––

DR Peak RMS Duration Track
––––––––––––––––––––––––––––––––––––––––
DR14 -0.37 dB -19.77 dB 6:14 01-Easy Living
DR13 -0.46 dB -15.58 dB 4:55 02-Days Of Wine And Roses
DR13 -1.12 dB -18.21 dB 6:07 03-Gee Baby, Ain't I Good To You
DR12 -0.01 dB -15.35 dB 7:25 04-Basie
DR12 -0.39 dB -16.03 dB 6:36 05-Mean To Me
DR12 -0.02 dB -15.71 dB 5:10 06-Signify
DR13 -0.14 dB -16.41 dB 4:42 07-Willow Weep For Me
DR12 -1.02 dB -16.91 dB 4:36 08-Man I Love, The
DR15 -0.06 dB -19.57 dB 5:29 09-You Go To My Head
––––––––––––––––––––––––––––––––––––––––

Number of tracks: 9
Official DR value: DR13

Samplerate: 44100 Hz
Channels: 2
Bits per sample: 16
Bitrate: 704 kbps
Codec: FLAC
================================================================================

Oscar Peterson, Harry Edison - Oscar Peterson & Harry Edison (1975) {Pablo}
Oscar Peterson, Harry Edison - Oscar Peterson & Harry Edison (1975) {Pablo}


Thanks to the original ripper