Subcategories

ScapeLand Wish - 2 Studio Albums (2000-2003)

Posted By: gribovar
ScapeLand Wish - 2 Studio Albums (2000-2003)

ScapeLand Wish - 2 Studio Albums (2000-2003)
EAC Rip | FLAC (image+.cue+log) - 873 MB | MP3 CBR 320 kbps (LAME 3.93) - 308 MB | Covers - 32 MB
Genre: Neo-Progressive Rock | RAR 3% Rec. | Label: Self-released

Connecticut? One would never guess that good progressive music could be found in Connecticut. ScapeLand Wish are here to prove any doubters wrong. Hailing from the southwestern section of the state, the trio of Joshua Ramirez (Lead Vocals, Percussion), Mike Stiskal (Bass, Keyboards, and Backing Vocals), and Kevin Forsberg (Guitars) have drawn from bands as varied as Marillion to CSN&Y to make up their brand of solid progressive music with exceptional harmonies and melodies. And ScapeLand Wish are a real garage band, as both albums Reason (2000) and Ghosts Of Autumn (2003) were both recorded and mixed in a converted garage. Just like a good ol' American band, eh? Solid musicianship, nice keyboard work and soaring guitar solos that should appeal to prog fans.

ScapeLand Wish - 2 Studio Albums (2000-2003)

ScapeLand Wish - Reason (2000)
EAC Rip | FLAC (image+.cue+log) - 361 MB | MP3 CBR 320 kbps (LAME 3.93) - 136 MB | Covers - 16 MB
Genre: Neo-Progressive Rock | RAR 3% Rec. | Label: Self-released

Tracklist:
01. Prelude To Reason
02. Utopia
03. As A Child
04. Snow In Santa Fe
05. Reason
06. The Tonight Show
07. Before The Absence
08. Absence Of God
09. The Heart Of The Andes
10. A Brave New World
11. Arms Around You
12. Chinese Spare Ribs
13. Silver Sleep
14. Take The Lead

Total time: 57:48

Exact Audio Copy V1.5 from 20. February 2020

EAC extraction logfile from 17. October 2020, 21:15

ScapeLand Wish / Reason

Used drive : ASUS DRW-24B1LT Adapter: 1 ID: 2

Read mode : Secure
Utilize accurate stream : Yes
Defeat audio cache : Yes
Make use of C2 pointers : No

Read offset correction : 6
Overread into Lead-In and Lead-Out : No
Fill up missing offset samples with silence : Yes
Delete leading and trailing silent blocks : No
Null samples used in CRC calculations : Yes
Used interface : Native Win32 interface for Win NT & 2000

Used output format : User Defined Encoder
Selected bitrate : 1024 kBit/s
Quality : High
Add ID3 tag : No
Command line compressor : C:\Program Files (x86)\FLAC_1.3.3\win64\flac.exe
Additional command line options : -6 -V -T "ARTIST=%artist%" -T "TITLE=%title%" -T "ALBUM=%albumtitle%" -T "DATE=%year%" -T "TRACKNUMBER=%tracknr%" -T "GENRE=%genre%" -T "COMMENT=ripped by wurensh for rutracker.org" %source% -o %dest%


TOC of the extracted CD

Track | Start | Length | Start sector | End sector
––––––––––––––––––––––––––––-
1 | 0:00.00 | 1:08.62 | 0 | 5161
2 | 1:08.62 | 3:57.73 | 5162 | 23009
3 | 5:06.60 | 7:22.03 | 23010 | 56162
4 | 12:28.63 | 4:29.66 | 56163 | 76403
5 | 16:58.54 | 4:18.58 | 76404 | 95811
6 | 21:17.37 | 1:35.00 | 95812 | 102936
7 | 22:52.37 | 0:34.23 | 102937 | 105509
8 | 23:26.60 | 4:05.50 | 105510 | 123934
9 | 27:32.35 | 6:07.58 | 123935 | 151517
10 | 33:40.18 | 5:01.30 | 151518 | 174122
11 | 38:41.48 | 3:13.12 | 174123 | 188609
12 | 41:54.60 | 5:13.04 | 188610 | 212088
13 | 47:07.64 | 3:25.71 | 212089 | 227534
14 | 50:33.60 | 7:14.15 | 227535 | 260099


Range status and errors

Selected range

Filename Y:\EAC\wurensh\ScapeLand Wish\ScapeLand Wish - Reason.wav

Peak level 98.8 %
Extraction speed 8.8 X
Range quality 100.0 %
Test CRC 4BCC0780
Copy CRC 4BCC0780
Copy OK

No errors occurred


AccurateRip summary

Track 1 accurately ripped (confidence 5) [681B211E] (AR v2)
Track 2 accurately ripped (confidence 5) [C20F29F3] (AR v2)
Track 3 accurately ripped (confidence 5) [0C0E1539] (AR v2)
Track 4 accurately ripped (confidence 5) [5C59728B] (AR v2)
Track 5 accurately ripped (confidence 5) [B3DA27E1] (AR v2)
Track 6 accurately ripped (confidence 5) [8708A67B] (AR v2)
Track 7 accurately ripped (confidence 5) [AE057FE6] (AR v2)
Track 8 accurately ripped (confidence 5) [31BA5C53] (AR v2)
Track 9 accurately ripped (confidence 5) [57470E11] (AR v2)
Track 10 accurately ripped (confidence 5) [9A67FDA4] (AR v2)
Track 11 accurately ripped (confidence 5) [18A1C0FF] (AR v2)
Track 12 accurately ripped (confidence 5) [04F133A2] (AR v2)
Track 13 accurately ripped (confidence 5) [9AC51FCD] (AR v2)
Track 14 accurately ripped (confidence 5) [76C41B5E] (AR v2)

All tracks accurately ripped

End of status report

==== Log checksum 1B2514175CCFE377DC09E6DC96254B4770E94C0171A9503C9CAD7EAC6DEC862C ====

[CUETools log; Date: 18.10.2020 11:46:30; Version: 2.1.4]
[CTDB TOCID: APF22p6iJEUxXNj_2rxzk0ZLrGc-] found.
Track | CTDB Status
1 | (4/4) Accurately ripped
2 | (4/4) Accurately ripped
3 | (4/4) Accurately ripped
4 | (4/4) Accurately ripped
5 | (4/4) Accurately ripped
6 | (4/4) Accurately ripped
7 | (4/4) Accurately ripped
8 | (4/4) Accurately ripped
9 | (4/4) Accurately ripped
10 | (4/4) Accurately ripped
11 | (4/4) Accurately ripped
12 | (4/4) Accurately ripped
13 | (4/4) Accurately ripped
14 | (4/4) Accurately ripped
[AccurateRip ID: 001b829c-012939a9-a00d8c0e] found.
Track [ CRC | V2 ] Status
01 [da9db6e7|681b211e] (0+5/5) Accurately ripped
02 [3c1df1c8|c20f29f3] (0+5/5) Accurately ripped
03 [04bf9747|0c0e1539] (0+5/5) Accurately ripped
04 [0c9bbeaf|5c59728b] (0+5/5) Accurately ripped
05 [9b0ec97d|b3da27e1] (0+5/5) Accurately ripped
06 [2226dd18|8708a67b] (0+5/5) Accurately ripped
07 [2d2a7fb7|ae057fe6] (0+5/5) Accurately ripped
08 [6021c8bd|31ba5c53] (0+5/5) Accurately ripped
09 [c8354c9a|57470e11] (0+5/5) Accurately ripped
10 [b99c5e43|9a67fda4] (0+5/5) Accurately ripped
11 [5219a2f4|18a1c0ff] (0+5/5) Accurately ripped
12 [44673e0c|04f133a2] (0+5/5) Accurately ripped
13 [b077fb4b|9ac51fcd] (0+5/5) Accurately ripped
14 [11cf6c0f|76c41b5e] (0+5/5) Accurately ripped

Track Peak [ CRC32 ] [W/O NULL] [ LOG ]
– 98,8 [4BCC0780] [9A8EE526] CRC32
01 96,6 [4E6CB477] [81FDB31B]
02 96,6 [B9FF16D0] [C069DE0F]
03 98,8 [391DA56D] [3163ACDE]
04 96,6 [FE0542BB] [CA2DEF3F]
05 98,8 [CB9670CC] [690ED306]
06 88,1 [78A73C74] [D352AEBE]
07 98,8 [E15F820A] [C4496DA5]
08 85,1 [E0938946] [1334AE6C]
09 98,8 [00163483] [7D8D2510]
10 98,8 [5A3A8D68] [A588CBA7]
11 95,5 [EB547AA6] [357A6CBD]
12 98,8 [651B0E02] [D5DCE775]
13 98,8 [AE384649] [86DA3049]
14 98,8 [9B9488FE] [0E23795A]

ScapeLand Wish - 2 Studio Albums (2000-2003)

ScapeLand Wish - The Ghost of Autumn (2003)
EAC Rip | FLAC (image+.cue+log) - 512 MB | MP3 CBR 320 kbps (LAME 3.93) - 172 MB | Covers - 16 MB
Genre: Neo-Progressive Rock | RAR 3% Rec. | Label: Self-released

Tracklist:
01. Misty's Cage
02. The Highway
03. Reflection
04. Fever Dream
05. Ostrich Alternative
06. The Ghost Of Autumn
07. Inner Space
08. Nemo
09. The Willow Song
10. Fading Light
11. Autumn

Total time: 01:13:07

Exact Audio Copy V1.5 from 20. February 2020

EAC extraction logfile from 17. October 2020, 21:55

ScapeLand Wish / The Ghost of Autumn

Used drive : ASUS DRW-24B1LT Adapter: 1 ID: 2

Read mode : Secure
Utilize accurate stream : Yes
Defeat audio cache : Yes
Make use of C2 pointers : No

Read offset correction : 6
Overread into Lead-In and Lead-Out : No
Fill up missing offset samples with silence : Yes
Delete leading and trailing silent blocks : No
Null samples used in CRC calculations : Yes
Used interface : Native Win32 interface for Win NT & 2000

Used output format : User Defined Encoder
Selected bitrate : 1024 kBit/s
Quality : High
Add ID3 tag : No
Command line compressor : C:\Program Files (x86)\FLAC_1.3.3\win64\flac.exe
Additional command line options : -6 -V -T "ARTIST=%artist%" -T "TITLE=%title%" -T "ALBUM=%albumtitle%" -T "DATE=%year%" -T "TRACKNUMBER=%tracknr%" -T "GENRE=%genre%" -T "COMMENT=ripped by wurensh for rutracker.org" %source% -o %dest%


TOC of the extracted CD

Track | Start | Length | Start sector | End sector
––––––––––––––––––––––––––––-
1 | 0:00.00 | 9:15.01 | 0 | 41625
2 | 9:15.01 | 5:40.20 | 41626 | 67145
3 | 14:55.21 | 5:52.49 | 67146 | 93594
4 | 20:47.70 | 7:01.21 | 93595 | 125190
5 | 27:49.16 | 5:04.32 | 125191 | 148022
6 | 32:53.48 | 7:40.55 | 148023 | 182577
7 | 40:34.28 | 7:24.06 | 182578 | 215883
8 | 47:58.34 | 4:49.44 | 215884 | 237602
9 | 52:48.03 | 7:57.36 | 237603 | 273413
10 | 60:45.39 | 9:30.17 | 273414 | 316180
11 | 70:15.56 | 2:51.51 | 316181 | 329056


Range status and errors

Selected range

Filename Y:\EAC\wurensh\ScapeLand Wish\ScapeLand Wish - The Ghost of Autumn.wav

Peak level 100.0 %
Extraction speed 5.1 X
Range quality 100.0 %
Test CRC EDC139B6
Copy CRC EDC139B6
Copy OK

No errors occurred


AccurateRip summary

Track 1 accurately ripped (confidence 2) [E6C0360F] (AR v2)
Track 2 accurately ripped (confidence 2) [EA9BDD77] (AR v2)
Track 3 accurately ripped (confidence 2) [7B3AF797] (AR v2)
Track 4 accurately ripped (confidence 2) [2C413061] (AR v2)
Track 5 accurately ripped (confidence 2) [0EA188EC] (AR v2)
Track 6 accurately ripped (confidence 2) [E423EFF0] (AR v2)
Track 7 accurately ripped (confidence 2) [844A9528] (AR v2)
Track 8 accurately ripped (confidence 2) [62B7E846] (AR v2)
Track 9 accurately ripped (confidence 2) [1A2A3DE5] (AR v2)
Track 10 accurately ripped (confidence 2) [82B8AF72] (AR v2)
Track 11 accurately ripped (confidence 2) [4C4D771E] (AR v2)

All tracks accurately ripped

End of status report

==== Log checksum 877285CBF8AE5098EAA8A51A71450E2865A96970A09340545571DD7617BEE5EE ====

[CUETools log; Date: 18.10.2020 11:46:55; Version: 2.1.4]
[CTDB TOCID: XGZFJzOvwjM5pFO_6uwiW2MfLf8-] found.
Track | CTDB Status
1 | (4/4) Accurately ripped
2 | (4/4) Accurately ripped
3 | (4/4) Accurately ripped
4 | (4/4) Accurately ripped
5 | (4/4) Accurately ripped
6 | (4/4) Accurately ripped
7 | (4/4) Accurately ripped
8 | (4/4) Accurately ripped
9 | (4/4) Accurately ripped
10 | (4/4) Accurately ripped
11 | (4/4) Accurately ripped
[AccurateRip ID: 001efada-010aaf94-ae11230b] found.
Track [ CRC | V2 ] Status
01 [b00d4fc8|e6c0360f] (0+2/2) Accurately ripped
02 [a040e78b|ea9bdd77] (0+2/2) Accurately ripped
03 [ece3ca3c|7b3af797] (0+2/2) Accurately ripped
04 [db6d7e29|2c413061] (0+2/2) Accurately ripped
05 [18ada015|0ea188ec] (0+2/2) Accurately ripped
06 [3ec716c9|e423eff0] (0+2/2) Accurately ripped
07 [7713df4e|844a9528] (0+2/2) Accurately ripped
08 [2a15c9eb|62b7e846] (0+2/2) Accurately ripped
09 [32b82806|1a2a3de5] (0+2/2) Accurately ripped
10 [f8920b80|82b8af72] (0+2/2) Accurately ripped
11 [efde16e9|4c4d771e] (0+2/2) Accurately ripped

Track Peak [ CRC32 ] [W/O NULL] [ LOG ]
– 100,0 [EDC139B6] [55086C30] CRC32
01 99,9 [580FE0AB] [E1758020]
02 99,9 [9D926FBE] [73187551]
03 99,9 [58E16559] [F218BC71]
04 99,9 [70317748] [184FF480]
05 99,9 [7B25F7EB] [8D92B7F8]
06 100,0 [E4A64697] [036FA051]
07 99,9 [12CD8473] [BFEBB1A4]
08 99,9 [EC78BF84] [F2EAACBE]
09 99,9 [69520545] [D347921B]
10 100,0 [91389C7D] [F2EE6759]
11 99,9 [1E765ED5] [149C54BD]

Thanks to wurensh