Subcategories

Stevie Wonder - Albums Collection 1966-1985 (14CD) Japanese SHM-CD Reissue 2012 [Re-Up]

Posted By: Designol
Stevie Wonder - Albums Collection 1966-1985 (14CD) Japanese SHM-CD Reissue 2012 [Re-Up]

Stevie Wonder - Albums Collection 1966-1985 (14CD) Japanese SHM-CD Reissue 2012
EAC | FLAC | Image (Cue&Log) ~ 3.7 Gb | Mp3 (CBR320) ~ 1.35 Gb | Scans ~ 615 Mb
Label: Universal Music Japan | # UICY-20346-20359 | Time: 10:05:00
Funk, Soul, R&B, Pop/Rock, Jazz-Funk, Disco

Collection includes: 'Up-Tight' (1966); 'Down To Earth' (1966); 'My Cherie Amour' (1969); 'Where I'm Coming From' (1971); 'Music Of My Mind' (1972); 'Talking Book' (1972); 'Innervisions' (1973); 'Fulfillingness' First Finale' (1974); 'Songs In The Key Of Life' 2CD (1976); 'Journey Through The Secret Life Of Plants' 2CD (1979); 'Hotter Than July' (1980); 'In Square Circle' (1985).

Stevie Wonder - Albums Collection 1966-1985 (14CD) Japanese SHM-CD Reissue 2012 [Re-Up]

Stevie Wonder - Albums Collection 1966-1985 (14CD) Japanese SHM-CD Reissue 2012 [Re-Up]





Stevie Wonder - Albums Collection 1966-1985 (14CD) Japanese SHM-CD Reissue 2012 [Re-Up]

Stevie Wonder - Up-Tight (1966) Japanese SHM-CD Reissue 2012
EAC | FLAC | Image (Cue&Log) ~ 221 Mb | Mp3 (CBR320) ~ 76 Mb | Scans ~ 35 Mb
Label: Universal Music Japan | # UICY-20346 | Time: 00:33:23

Stevie Wonder began demonstrating his production skills and compositional acumen on his first of two albums in 1966. Although still just a teenager, Wonder was already anxious to do more than simply grind out love tunes. He covered Bob Dylan's "Blowin' in the Wind" and also contributed "Pretty Little Angel" alongside the monster hits "Nothin's Too Good for My Baby" and the title song. It was also a signal Wonder had moved beyond simply paying homage to Ray Charles and now wanted to establish his own musical identity.

Review by Ron Wynn, Allmusic.com

Tracklist:

01. Love A Go-Go 02:46
02. Hold Me 02:36
03. Blowin' In The Wind 03:46
04. Nothing's Too Good For My Baby 02:39
05. Teach Me Tonight 02:39
06. Uptight (Everything's Alright) 02:55
07. Ain't That Asking For Trouble 02:49
08. I Want My Baby Back 02:49
09. Pretty Little Angel 02:12
10. Music Talk 02:52
11. Contract On Love 02:06
12. With A Child's Heart 03:08


Exact Audio Copy V1.0 beta 3 from 29. August 2011

EAC extraction logfile from 13. October 2012, 21:35

Stevie Wonder / Up-Tight

Used drive : HL-DT-STDVDRAM GSA-H60N Adapter: 2 ID: 0

Read mode : Secure
Utilize accurate stream : Yes
Defeat audio cache : Yes
Make use of C2 pointers : No

Read offset correction : 667
Overread into Lead-In and Lead-Out : No
Fill up missing offset samples with silence : Yes
Delete leading and trailing silent blocks : No
Null samples used in CRC calculations : Yes
Used interface : Native Win32 interface for Win NT & 2000

Used output format : Internal WAV Routines
Sample format : 44.100 Hz; 16 Bit; Stereo


TOC of the extracted CD

Track | Start | Length | Start sector | End sector
––––––––––––––––––––––––––––-
1 | 0:00.00 | 2:46.03 | 0 | 12452
2 | 2:46.03 | 2:36.17 | 12453 | 24169
3 | 5:22.20 | 3:46.53 | 24170 | 41172
4 | 9:08.73 | 2:39.20 | 41173 | 53117
5 | 11:48.18 | 2:39.57 | 53118 | 65099
6 | 14:28.00 | 2:55.00 | 65100 | 78224
7 | 17:23.00 | 2:49.15 | 78225 | 90914
8 | 20:12.15 | 2:49.73 | 90915 | 103662
9 | 23:02.13 | 2:12.25 | 103663 | 113587
10 | 25:14.38 | 2:52.60 | 113588 | 126547
11 | 28:07.23 | 2:06.70 | 126548 | 136067
12 | 30:14.18 | 3:08.07 | 136068 | 150174


Range status and errors

Selected range

Filename C:\Documents and Settings\Admin\Рабочий стол\Rip by ALLexxess\Stevie Wonder\1966 Up-Tight (Universal Music Japan SHM-CD 2012)\Stevie Wonder - Up-Tight.wav

Peak level 100.0 %
Extraction speed 5.3 X
Range quality 99.9 %
Test CRC 0C059D2A
Copy CRC 0C059D2A
Copy OK

No errors occurred


AccurateRip summary

Track 1 not present in database
Track 2 not present in database
Track 3 not present in database
Track 4 not present in database
Track 5 not present in database
Track 6 not present in database
Track 7 not present in database
Track 8 not present in database
Track 9 not present in database
Track 10 not present in database
Track 11 not present in database
Track 12 not present in database

None of the tracks are present in the AccurateRip database

End of status report

==== Log checksum 759E9F8A567066F1441CDE32783D14796A3EB0AEA6682D526F5C4D356AE4C10D ====

–––––––––––––––––––––––-
Statistics for: Stevie Wonder - Up-Tight.wav
Number of Samples: 88302900
–––––––––––––––––––––––-

left right

Peak value: over –- 0.00 dB
Avg RMS: -10.75 dB –- -12.58 dB
DR channel: 8.37 dB –- 10.25 dB
–––––––––––––––––––––––-

Official DR value: DR9
===============================================




Stevie Wonder - Albums Collection 1966-1985 (14CD) Japanese SHM-CD Reissue 2012 [Re-Up]

Stevie Wonder - Down To Earth (1966) Japanese SHM-CD Reissue 2012
EAC | FLAC | Image (Cue&Log) ~ 194 Mb | Mp3 (CBR320) ~ 76 Mb | Scans ~ 40 Mb
Label: Universal Music Japan | # UICY-20347 | Time: 00:33:20

Stevie Wonder's third album signaled more artistic growth, but was the first of his career that didn't make much commercial headway. It didn't contain a single big hit, something that wouldn't happen again to Wonder for many, many years. There were moments of uncertainty and awkwardness on such songs as "Angel Baby (Don't You Ever Leave Me)" and "Lonesome Road." Wonder was laying the groundwork for numerous classics that routinely came throughout the 1970s and '80s; his voice was losing its cuteness and beginning to gain the richness and edge that punctuated many of his future albums.

Review by Ron Wynn, Allmusic.com

Tracklist:

01. A Place In The Sun 02:52
02. Bang Bang 02:42
03. Down To Earth 02:50
04. Thank You Love 02:55
05. Be Cool Be Calm (And Keep Yourself Together) 02:43
06. Sylvia 02:34
07. My World Is Empty Without You 02:53
08. The Lonesome Road 03:06
09. Angel Baby (Don't You Ever Leave Me) 02:45
10. Mr. Tambourine Man 02:30
11. Sixteen Tons 02:42
12. Hey Love 02:41


Exact Audio Copy V1.0 beta 3 from 29. August 2011

EAC extraction logfile from 16. October 2012, 18:56

Stevie Wonder / Down To Earth

Used drive : HL-DT-STDVDRAM GSA-H60N Adapter: 2 ID: 0

Read mode : Secure
Utilize accurate stream : Yes
Defeat audio cache : Yes
Make use of C2 pointers : No

Read offset correction : 667
Overread into Lead-In and Lead-Out : No
Fill up missing offset samples with silence : Yes
Delete leading and trailing silent blocks : No
Null samples used in CRC calculations : Yes
Used interface : Native Win32 interface for Win NT & 2000

Used output format : Internal WAV Routines
Sample format : 44.100 Hz; 16 Bit; Stereo


TOC of the extracted CD

Track | Start | Length | Start sector | End sector
––––––––––––––––––––––––––––-
1 | 0:00.00 | 2:52.65 | 0 | 12964
2 | 2:52.65 | 2:42.62 | 12965 | 25176
3 | 5:35.52 | 2:50.43 | 25177 | 37969
4 | 8:26.20 | 2:55.25 | 37970 | 51119
5 | 11:21.45 | 2:43.55 | 51120 | 63399
6 | 14:05.25 | 2:34.35 | 63400 | 74984
7 | 16:39.60 | 2:53.05 | 74985 | 87964
8 | 19:32.65 | 3:06.30 | 87965 | 101944
9 | 22:39.20 | 2:45.70 | 101945 | 114389
10 | 25:25.15 | 2:30.62 | 114390 | 125701
11 | 27:56.02 | 2:42.10 | 125702 | 137861
12 | 30:38.12 | 2:41.45 | 137862 | 149981


Range status and errors

Selected range

Filename C:\Documents and Settings\Admin\Рабочий стол\Rip by ALLexxess\Stevie Wonder\1966 Down To Earth (Universal Music Japan SHM-CD 2012)\Stevie Wonder - Down To Earth.wav

Peak level 87.0 %
Extraction speed 4.1 X
Range quality 100.0 %
Test CRC 96CB3039
Copy CRC 96CB3039
Copy OK

No errors occurred


AccurateRip summary

Track 1 cannot be verified as accurate (confidence 1) [382C0176], AccurateRip returned [CF57F84F] (AR v2)
Track 2 cannot be verified as accurate (confidence 1) [3A99D1D6], AccurateRip returned [4DA485E1] (AR v2)
Track 3 cannot be verified as accurate (confidence 1) [4F2C59CD], AccurateRip returned [DF484FE5] (AR v2)
Track 4 cannot be verified as accurate (confidence 1) [F83CA1E7], AccurateRip returned [123A3883] (AR v2)
Track 5 cannot be verified as accurate (confidence 1) [ED00EFE2], AccurateRip returned [EAC21D41] (AR v2)
Track 6 cannot be verified as accurate (confidence 1) [3870F460], AccurateRip returned [F0628F9C] (AR v2)
Track 7 cannot be verified as accurate (confidence 1) [E530AE08], AccurateRip returned [8EC26CB3] (AR v2)
Track 8 cannot be verified as accurate (confidence 1) [FE0B1793], AccurateRip returned [514433CA] (AR v2)
Track 9 cannot be verified as accurate (confidence 1) [9BD504E4], AccurateRip returned [DDDF90C5] (AR v2)
Track 10 cannot be verified as accurate (confidence 1) [AEC36894], AccurateRip returned [20E8B576] (AR v2)
Track 11 cannot be verified as accurate (confidence 1) [5AB0CCA7], AccurateRip returned [4EEF4AA7] (AR v2)
Track 12 cannot be verified as accurate (confidence 1) [27DEAFA0], AccurateRip returned [D5524234] (AR v2)

No tracks could be verified as accurate
You may have a different pressing from the one(s) in the database

End of status report

==== Log checksum 4C5B675753A7CDDF6544F81C68386422353E1A3C2A767C4BE85E1AAF7E51F24C ====

–––––––––––––––––––––––-
Statistics for: Stevie Wonder - Down To Earth.wav
Number of Samples: 88189416
–––––––––––––––––––––––-

left right

Peak value: -1.96 dB –- -1.20 dB
Avg RMS: -16.85 dB –- -16.78 dB
DR channel: 12.91 dB –- 13.68 dB
–––––––––––––––––––––––-

Official DR value: DR13
===============================================




Stevie Wonder - Albums Collection 1966-1985 (14CD) Japanese SHM-CD Reissue 2012 [Re-Up]

Stevie Wonder - My Cherie Amour (1969) Japanese SHM-CD Reissue 2012
EAC | FLAC | Image (Cue&Log) ~ 229 Mb | Mp3 (CBR320) ~ 83 Mb | Scans ~ 35 Mb
Label: Universal Music Japan | # UICY-20348 | Time: 00:36:16

Notable for containing Wonder's then-most recent Top Ten hit, the title track, and its follow-up, "Yester-Me, Yester-You, Yesterday," this album otherwise contains contemporary filler like "Light My Fire," plus a peculiar arrangement of "Hello, Young Lovers" from The King and I that makes it sound like "For Once In My Life."

Review by William Ruhlmann, Allmusic.com

Tracklist:

01. My Cherie Amour 02:55
02. Hello Young Lovers 03:15
03. At Last 02:51
04. Light My Fire 03:44
05. The Shadow Of Your Smile 02:44
06. You And Me 02:46
07. Pearl 02:47
08. Somebody Knows, Somebody Cares 02:35
09. Yester-Me Yester-You, Yesterday 03:08
10. Angie Girl 03:03
11. Give Your Love 03:47
12. I've Got You 02:34


Exact Audio Copy V1.0 beta 3 from 29. August 2011

EAC extraction logfile from 15. October 2012, 20:33

Stevie Wonder / My Cherie Amour

Used drive : HL-DT-STDVDRAM GSA-H60N Adapter: 2 ID: 0

Read mode : Secure
Utilize accurate stream : Yes
Defeat audio cache : Yes
Make use of C2 pointers : No

Read offset correction : 667
Overread into Lead-In and Lead-Out : No
Fill up missing offset samples with silence : Yes
Delete leading and trailing silent blocks : No
Null samples used in CRC calculations : Yes
Used interface : Native Win32 interface for Win NT & 2000

Used output format : Internal WAV Routines
Sample format : 44.100 Hz; 16 Bit; Stereo


TOC of the extracted CD

Track | Start | Length | Start sector | End sector
––––––––––––––––––––––––––––-
1 | 0:00.00 | 2:55.10 | 0 | 13134
2 | 2:55.10 | 3:15.70 | 13135 | 27829
3 | 6:11.05 | 2:51.60 | 27830 | 40714
4 | 9:02.65 | 3:44.00 | 40715 | 57514
5 | 12:46.65 | 2:44.50 | 57515 | 69864
6 | 15:31.40 | 2:46.37 | 69865 | 82351
7 | 18:18.02 | 2:47.60 | 82352 | 94936
8 | 21:05.62 | 2:35.70 | 94937 | 106631
9 | 23:41.57 | 3:08.05 | 106632 | 120736
10 | 26:49.62 | 3:03.60 | 120737 | 134521
11 | 29:53.47 | 3:47.50 | 134522 | 151596
12 | 33:41.22 | 2:34.53 | 151597 | 163199


Range status and errors

Selected range

Filename C:\Documents and Settings\Admin\Рабочий стол\Rip by ALLexxess\Stevie Wonder\1969 My Cherie Amour (Universal Music Japan SHM-CD 2012)\Stevie Wonder - My Cherie Amour.wav

Peak level 73.9 %
Extraction speed 5.5 X
Range quality 100.0 %
Test CRC 92323DCA
Copy CRC 92323DCA
Copy OK

No errors occurred


AccurateRip summary

Track 1 not present in database
Track 2 not present in database
Track 3 not present in database
Track 4 not present in database
Track 5 not present in database
Track 6 not present in database
Track 7 not present in database
Track 8 not present in database
Track 9 not present in database
Track 10 not present in database
Track 11 not present in database
Track 12 not present in database

None of the tracks are present in the AccurateRip database

End of status report

==== Log checksum 0BD6D05455EBD0FF9EF56DD9A510316D319C7AA53A860E466659FF79D2117CE5 ====

–––––––––––––––––––––––-
Statistics for: Stevie Wonder - My Cherie Amour.wav
Number of Samples: 95961600
–––––––––––––––––––––––-

left right

Peak value: -2.77 dB –- -2.62 dB
Avg RMS: -18.13 dB –- -17.29 dB
DR channel: 13.00 dB –- 12.46 dB
–––––––––––––––––––––––-

Official DR value: DR13
===============================================




Stevie Wonder - Albums Collection 1966-1985 (14CD) Japanese SHM-CD Reissue 2012 [Re-Up]

Stevie Wonder - Where I'm Coming From (1971) Japanese SHM-CD Reissue 2012
EAC | FLAC | Image (Cue&Log) ~ 228 Mb | Mp3 (CBR320) ~ 85 Mb | Scans ~ 40 Mb
Label: Universal Music Japan | # UICY-20349 | Time: 00:37:27

One month before he turned 21, Stevie Wonder released Where I'm Coming From, the most distinctive record of his young career, and one that looked forward – in its breadth of material as well as its futuristic production aesthetic – to his many successes later in the '70s. There's a fabulous song here for nearly every type of fan; the soothing love ballad ("Think of Me as Your Soldier"), a gritty, apocalyptic funk extravanganza ("Do Yourself a Favor"), a kinetic, refreshing nod to the pop charts (the Top Ten hit "If You Really Love Me"), and an agonizing piece of heartache soul ("Never Dreamed You'd Leave in Summer" (slightly reworked for "Superwoman" on his next album Music of My Mind). Still, there are a few echoes of his occasionally pedestrian '60s work, and a pair of songs on the flipside sound especially anachronistic. The first is a piece of inspirational fluff called "Take up a Course in Happiness" with an odd arrangement pitched halfway between Sammy Davis, Jr. and Sgt. Pepper's, the second a jokey pick-up number named "I Wanna Talk to You" (complete with leering old-man vocals). Those two however, are the exceptions; the rules are uniformly excellent. The set closers "Never Dreamed You'd Leave in Summer" and "Sunshine in Their Eyes" are bravura performances, Stevie summoning his purest register to convey heartbreak and hopefulness, respectively, in equal measure. For all the great material included, there was little chance of these songs hanging together as a proper album, and Berry Gordy's misgivings about releasing a record like this on a Motown label were, temporarily, well-placed. Still, Where I'm Coming From was a frequently astonishing album from Motown's new genius of the recording studio.

Review by John Bush, Allmusic.com

Tracklist:

01. Look Around 02:48
02. Do Yourself A Favor 06:11
03. Think Of Me As Your Soldier 03:41
04. Something Out Of The Blue 03:04
05. If You Really Love Me 03:04
06. I Wanna Talk To You 05:21
07. Take Up A Course In Happiness 03:17
08. Never Dreamed You'd Leave In Summer 02:58
09. Sunshine In Their Eyes 06:58


Exact Audio Copy V1.0 beta 3 from 29. August 2011

EAC extraction logfile from 15. October 2012, 21:03

Stevie Wonder / Where I'm Coming From

Used drive : HL-DT-STDVDRAM GSA-H60N Adapter: 2 ID: 0

Read mode : Secure
Utilize accurate stream : Yes
Defeat audio cache : Yes
Make use of C2 pointers : No

Read offset correction : 667
Overread into Lead-In and Lead-Out : No
Fill up missing offset samples with silence : Yes
Delete leading and trailing silent blocks : No
Null samples used in CRC calculations : Yes
Used interface : Native Win32 interface for Win NT & 2000

Used output format : Internal WAV Routines
Sample format : 44.100 Hz; 16 Bit; Stereo


TOC of the extracted CD

Track | Start | Length | Start sector | End sector
––––––––––––––––––––––––––––-
1 | 0:00.37 | 2:48.40 | 37 | 12676
2 | 2:49.02 | 6:11.35 | 12677 | 40536
3 | 9:00.37 | 3:41.53 | 40537 | 57164
4 | 12:42.15 | 3:04.65 | 57165 | 71029
5 | 15:47.05 | 3:04.15 | 71030 | 84844
6 | 18:51.20 | 5:21.70 | 84845 | 108989
7 | 24:13.15 | 3:17.27 | 108990 | 123791
8 | 27:30.42 | 2:58.03 | 123792 | 137144
9 | 30:28.45 | 6:58.32 | 137145 | 168526


Range status and errors

Selected range

Filename C:\Documents and Settings\Admin\Рабочий стол\Rip by ALLexxess\Stevie Wonder\1971 Where I'm Comin' From (Universal Music Japan SHM-CD 2012)\Stevie Wonder - Where I'm Coming From.wav

Peak level 97.7 %
Extraction speed 5.6 X
Range quality 100.0 %
Test CRC 450301E7
Copy CRC 450301E7
Copy OK

No errors occurred


AccurateRip summary

Track 1 accurately ripped (confidence 3) [3E84D214] (AR v1)
Track 2 accurately ripped (confidence 3) [3E96F548] (AR v1)
Track 3 accurately ripped (confidence 3) [ABDFE240] (AR v1)
Track 4 accurately ripped (confidence 3) [A1D7195F] (AR v1)
Track 5 accurately ripped (confidence 4) [13103C1C] (AR v1)
Track 6 accurately ripped (confidence 3) [1B7E1DE0] (AR v1)
Track 7 accurately ripped (confidence 3) [D28A6C99] (AR v1)
Track 8 accurately ripped (confidence 3) [2ED869F5] (AR v1)
Track 9 accurately ripped (confidence 4) [8591A249] (AR v1)

All tracks accurately ripped

End of status report

==== Log checksum 8C551000C2474A648F5F408C42390C9CB3C015C1E5A30E49C696F08AF3313DAD ====

–––––––––––––––––––––––-
Statistics for: Stevie Wonder - Where I'm Coming From.wav
Number of Samples: 99093876
–––––––––––––––––––––––-

left right

Peak value: -0.20 dB –- -0.69 dB
Avg RMS: -14.43 dB –- -14.52 dB
DR channel: 11.88 dB –- 11.50 dB
–––––––––––––––––––––––-

Official DR value: DR12
===============================================




Stevie Wonder - Albums Collection 1966-1985 (14CD) Japanese SHM-CD Reissue 2012 [Re-Up]

Stevie Wonder - Music Of My Mind (1972) Japanese SHM-CD Reissue 2012
EAC | FLAC | Image (Cue&Log) ~ 310 Mb | Mp3 (CBR320) ~ 109 Mb | Scans ~ 61 Mb
Label: Universal Music Japan | # UICY-20350 | Time: 00:47:57

With a new contract from Motown in his hand, Stevie Wonder released Music of My Mind, his first truly unified record and, with the exception of a single part on two songs, the work of a one-man-band. Everything he had learned about musicianship, engineering, and production during his long apprenticeship in the Snakepit at Motown Studios came together here (from the liner notes: "The sounds themselves come from inside his mind. The man is his own instrument. The instrument is an orchestra.") Music of My Mind was also the first to bear the fruits of his increased focus on Moog and Arp synthesizers, though the songs never sound synthetic, due in great part to Stevie's reliance on a parade of real instruments – organic drumwork, harmonica, organs and pianos – as well as his mastery of traditional song structure and his immense musical personality. The intro of the vibrant, tender "I Love Every Little Thing About You" is a perfect example, humanized with a series of lightly breathed syllables for background rhythm. And when the synthesizers do appear, it's always in the perfect context: the standout "Superwoman" really benefits from its high-frequency harmonics, and "Seems So Long" wouldn't sound quite as affectionate without the warm electronics gurgling in the background. This still wasn't a perfect record, though; "Sweet Little Girl" was an awkward song, with Stevie assuming another of his embarrassing musical personalities to fawn over a girl.

Review by John Bush, Allmusic.com

Tracklist:

01. Love Having You Around 07:24
02. Superwoman 08:07
03. I Love Every Little Thing About You 03:55
04. Sweet Little Girl 04:59
05. Happier Than The Morning Sun 05:18
06. Girl Blue 03:34
07. Seems So Long 04:24
08. Keep On Running 06:40
09. Evil 03:33


Exact Audio Copy V1.0 beta 3 from 29. August 2011

EAC extraction logfile from 15. October 2012, 19:56

Stevie Wonder / Music Of My Mind

Used drive : HL-DT-STDVDRAM GSA-H60N Adapter: 2 ID: 0

Read mode : Secure
Utilize accurate stream : Yes
Defeat audio cache : Yes
Make use of C2 pointers : No

Read offset correction : 667
Overread into Lead-In and Lead-Out : No
Fill up missing offset samples with silence : Yes
Delete leading and trailing silent blocks : No
Null samples used in CRC calculations : Yes
Used interface : Native Win32 interface for Win NT & 2000

Used output format : Internal WAV Routines
Sample format : 44.100 Hz; 16 Bit; Stereo

TOC of the extracted CD

Track | Start | Length | Start sector | End sector
––––––––––––––––––––––––––––-
1 | 0:00.00 | 7:24.07 | 0 | 33306
2 | 7:24.07 | 8:07.55 | 33307 | 69886
3 | 15:31.62 | 3:55.53 | 69887 | 87564
4 | 19:27.40 | 4:59.07 | 87565 | 109996
5 | 24:26.47 | 5:18.15 | 109997 | 133861
6 | 29:44.62 | 3:34.08 | 133862 | 149919
7 | 33:18.70 | 4:24.32 | 149920 | 169751
8 | 37:43.27 | 6:40.08 | 169752 | 199759
9 | 44:23.35 | 3:33.60 | 199760 | 215794

Range status and errors

Selected range

Filename C:\Documents and Settings\Admin\Рабочий стол\Rip by ALLexxess\Stevie Wonder\1972 Music Of My Mind (Universal Music Japan SHM-CD 2012)\Stevie Wonder - Music Of My Mind.wav

Peak level 78.9 %
Extraction speed 5.9 X
Range quality 100.0 %
Test CRC 15D7D2EF
Copy CRC 15D7D2EF
Copy OK

No errors occurred

AccurateRip summary

Track 1 not present in database
Track 2 not present in database
Track 3 not present in database
Track 4 not present in database
Track 5 not present in database
Track 6 not present in database
Track 7 not present in database
Track 8 not present in database
Track 9 not present in database

None of the tracks are present in the AccurateRip database

End of status report

==== Log checksum 9F01E39A0B34DFD4C7543F5903D605F3B04BF681A08DC6FAEB9509BB3014692B ====

–––––––––––––––––––––––-
Statistics for: Stevie Wonder - Music Of My Mind.wav
Number of Samples: 126887460
–––––––––––––––––––––––-

left right

Peak value: -2.09 dB –- -2.05 dB
Avg RMS: -13.35 dB –- -12.78 dB
DR channel: 9.02 dB –- 8.39 dB
–––––––––––––––––––––––-

Official DR value: DR9
===============================================




Stevie Wonder - Albums Collection 1966-1985 (14CD) Japanese SHM-CD Reissue 2012 [Re-Up]

Stevie Wonder - Talking Book (1972) Japanese SHM-CD Reissue 2012
EAC | FLAC | Image (Cue&Log) ~ 264 Mb | Mp3 (CBR320) ~ 99 Mb | Scans ~ 45 Mb
Label: Universal Music Japan | # UICY-20351 | Time: 00:43:31

After releasing two "head" records during 1970-71, Stevie Wonder expanded his compositional palate with 1972's Talking Book to include societal ills as well as tender love songs, and so recorded the first smash album of his career. What had been hinted at on the intriguing project Music of My Mind was here focused into a laser beam of tight songwriting, warm electronic arrangements, and ebullient performances – altogether the most realistic vision of musical personality ever put to wax, beginning with a disarmingly simple love song, "You Are the Sunshine of My Life" (but of course, it's only the composition that's simple). Stevie's not always singing a tender ballad here – in fact, he flits from contentment to mistrust to promise to heartbreak within the course of the first four songs – but he never fails to render each song in the most vivid colors. In stark contrast to his early songs, which were clever but often relied on the Motown template of romantic metaphor, with Talking Book it became clear Stevie Wonder was beginning to speak his mind and use personal history for material (just as Marvin Gaye had with the social protest of 1971's What's Going On). The lyrics became less convoluted, while the emotional power gained in intensity. "You and I" and the glorious closer "I Believe (When I Fall in Love It Will Be Forever)" subtly illustrate that the conception of love can be stronger than the reality, while "Tuesday Heartbreak" speaks simply but powerfully: "I wanna be with you when the nighttime comes / I wanna be with you till the daytime comes." Ironically, the biggest hit from Talking Book wasn't a love song at all; the funk landmark "Superstition" urges empowerment instead of hopelessness, set to a grooving beat that made it one of the biggest hits of his career. It's followed by "Big Brother," the first of his directly critical songs, excoriating politicians who posture to the underclass in order to gain the only thing they really need: votes. With Talking Book, Stevie also found a proper balance between making an album entirely by himself and benefiting from the talents of others. His wife Syreeta and her sister Yvonne Wright contributed three great lyrics, and Ray Parker, Jr. came by to record a guitar solo that brings together the lengthy jam "Maybe Your Baby." Two more guitar heroes, Jeff Beck and Buzzy Feton, appeared on "Lookin' for Another Pure Love," Beck's solo especially giving voice to the excruciating process of moving on from a broken relationship. Like no other Stevie Wonder LP before it, Talking Book is all of a piece, the first unified statement of his career. It's certainly an exercise in indulgence but, imitating life, it veers breathtakingly from love to heartbreak and back with barely a pause.

Review by John Bush, Allmusic.com

Tracklist:

01. You Are The Sunshine Of My Life 02:59
02. Maybe Your Baby 06:50
03. You And I 04:38
04. Tuesday Heartbreak 03:02
05. You've Got It Bad Girl 04:58
06. Superstition 04:26
07. Big Brother 03:33
08. Blame It On The Sun 03:25
09. Looking For Another Pure Love 04:43
10. I Believe (When I Fall In Love It Will Be Forever) 04:52


Exact Audio Copy V1.0 beta 3 from 29. August 2011

EAC extraction logfile from 16. October 2012, 19:34

Stevie Wonder / Talking Book

Used drive : HL-DT-STDVDRAM GSA-H60N Adapter: 2 ID: 0

Read mode : Secure
Utilize accurate stream : Yes
Defeat audio cache : Yes
Make use of C2 pointers : No

Read offset correction : 667
Overread into Lead-In and Lead-Out : No
Fill up missing offset samples with silence : Yes
Delete leading and trailing silent blocks : No
Null samples used in CRC calculations : Yes
Used interface : Native Win32 interface for Win NT & 2000

Used output format : Internal WAV Routines
Sample format : 44.100 Hz; 16 Bit; Stereo


TOC of the extracted CD

Track | Start | Length | Start sector | End sector
––––––––––––––––––––––––––––-
1 | 0:00.00 | 2:59.07 | 0 | 13431
2 | 2:59.07 | 6:50.48 | 13432 | 44229
3 | 9:49.55 | 4:38.17 | 44230 | 65096
4 | 14:27.72 | 3:02.10 | 65097 | 78756
5 | 17:30.07 | 4:58.73 | 78757 | 101179
6 | 22:29.05 | 4:26.17 | 101180 | 121146
7 | 26:55.22 | 3:33.45 | 121147 | 137166
8 | 30:28.67 | 3:25.65 | 137167 | 152606
9 | 33:54.57 | 4:43.40 | 152607 | 173871
10 | 38:38.22 | 4:52.43 | 173872 | 195814


Range status and errors

Selected range

Filename C:\Documents and Settings\Admin\Рабочий стол\Rip by ALLexxess\Stevie Wonder\1972 Talking Book (Universal Music Japan SHM-CD 2012)\Stevie Wonder - Talking Book.wav

Peak level 100.0 %
Extraction speed 5.7 X
Range quality 99.9 %
Test CRC B02D1945
Copy CRC B02D1945
Copy OK

No errors occurred


AccurateRip summary

Track 1 cannot be verified as accurate (confidence 4) [C8EF965F], AccurateRip returned [BC395A12] (AR v2)
Track 2 cannot be verified as accurate (confidence 4) [C2B51B2B], AccurateRip returned [4A2227E4] (AR v2)
Track 3 cannot be verified as accurate (confidence 4) [2C9DA25C], AccurateRip returned [7D96B776] (AR v2)
Track 4 cannot be verified as accurate (confidence 4) [70AD8D64], AccurateRip returned [7CCE7E8F] (AR v2)
Track 5 cannot be verified as accurate (confidence 4) [1D83F140], AccurateRip returned [6D46B0D0] (AR v2)
Track 6 cannot be verified as accurate (confidence 4) [C68A38B5], AccurateRip returned [CB23E7D2] (AR v2)
Track 7 cannot be verified as accurate (confidence 4) [A28D7DCA], AccurateRip returned [B9B4CFB7] (AR v2)
Track 8 cannot be verified as accurate (confidence 4) [D902AC6E], AccurateRip returned [DF6EE7A1] (AR v2)
Track 9 cannot be verified as accurate (confidence 4) [8798F25F], AccurateRip returned [892D2C68] (AR v2)
Track 10 cannot be verified as accurate (confidence 4) [B7FBE712], AccurateRip returned [39BE396A] (AR v2)

No tracks could be verified as accurate
You may have a different pressing from the one(s) in the database

End of status report

==== Log checksum D72C7B3B786F9DAD3B4BAD0101A82E9C2103A722A763DF870ABA54DD9DBB7DE5 ====

foobar2000 1.1.15 / Dynamic Range Meter 1.1.1
log date: 2012-10-24 15:54:46

––––––––––––––––––––––––––––––––––––––––
Analyzed: Stevie Wonder / Talking Book
––––––––––––––––––––––––––––––––––––––––

DR Peak RMS Duration Track
––––––––––––––––––––––––––––––––––––––––
DR12 -0.97 dB -14.87 dB 2:59 01-You Are The Sunshine Of My Life
DR12 -1.19 dB -15.35 dB 6:51 02-Maybe Your Baby
DR11 -1.93 dB -16.03 dB 4:38 03-You And I
DR12 -1.93 dB -16.42 dB 3:02 04-Tuesday Heartbreak
DR11 -1.77 dB -14.41 dB 4:59 05-You've Got It Bad Girl
DR13 -1.05 dB -16.09 dB 4:26 06-Superstition
DR12 -1.59 dB -15.73 dB 3:34 07-Big Brother
DR12 -1.70 dB -15.80 dB 3:26 08-Blame It On The Sun
DR12 0.00 dB -15.10 dB 4:44 09-Lookin' For Another Pure Love
DR11 -0.45 dB -14.62 dB 4:53 10-I Believe (When I Fall In Love It Will Be Forever )
––––––––––––––––––––––––––––––––––––––––

Number of tracks: 10
Official DR value: DR12

Samplerate: 44100 Hz
Channels: 2
Bits per sample: 16
Bitrate: 848 kbps
Codec: FLAC
================================================================================




Stevie Wonder - Albums Collection 1966-1985 (14CD) Japanese SHM-CD Reissue 2012 [Re-Up]

Stevie Wonder - Innervisions (1973) Japanese SHM-CD Reissue 2012
EAC | FLAC | Image (Cue&Log) ~ 295 Mb | Mp3 (CBR320) ~ 101 Mb | Scans ~ 51 Mb
Label: Universal Music Japan | # UICY-20352 | Time: 00:44:16

When Stevie Wonder applied his tremendous songwriting talents to the unsettled social morass that was the early '70s, he produced one of his greatest, most important works, a rich panoply of songs addressing drugs, spirituality, political ethics, the unnecessary perils of urban life, and what looked to be the failure of the '60s dream – all set within a collection of charts as funky and catchy as any he'd written before. Two of the highlights, "Living for the City" and "Too High," make an especially deep impression thanks to Stevie's narrative talents; on the first, an eight-minute mini-epic, he brings a hard-scrabble Mississippi black youth to the city and illustrates, via a brilliant dramatic interlude, what lies in wait for innocents. (He also uses his variety of voice impersonations to stunning effect.) "Too High" is just as stunning, a cautionary tale about drugs driven by a dizzying chorus of scat vocals and a springing bassline. "Higher Ground," a funky follow-up to the previous album's big hit ("Superstition"), and "Jesus Children of America" both introduced Wonder's interest in Eastern religion. It's a tribute to his genius that he could broach topics like reincarnation and transcendental meditation in a pop context with minimal interference to the rest of the album. Wonder also made no secret of the fact that "He's Misstra Know-It-All" was directed at Tricky Dick, aka Richard Milhouse Nixon, then making headlines (and destroying America's faith in the highest office) with the biggest political scandal of the century. Putting all these differing themes and topics into perspective was the front cover, a striking piece by Efram Wolff portraying Stevie Wonder as the blind visionary, an artist seeing far better than those around him what was going on in the early '70s, and using his astonishing musical gifts to make this commentary one of the most effective and entertaining ever heard.

Review by John Bush, Allmusic.com

Tracklist:

01. Too High 04:36
02. Visions 05:23
03. Living For The City 07:22
04. Golden Lady 04:59
05. Higher Ground 03:42
06. Jesus Children Of America 04:10
07. All In Love Is Fair 03:41
08. Don't You Worry 'Bout A Thing 04:44
09. He's Misstra Know-It-All 05:35


Exact Audio Copy V1.0 beta 3 from 29. August 2011

EAC extraction logfile from 15. October 2012, 17:18

Stevie Wonder / Innervisions

Used drive : HL-DT-STDVDRAM GSA-H60N Adapter: 2 ID: 0

Read mode : Secure
Utilize accurate stream : Yes
Defeat audio cache : Yes
Make use of C2 pointers : No

Read offset correction : 667
Overread into Lead-In and Lead-Out : No
Fill up missing offset samples with silence : Yes
Delete leading and trailing silent blocks : No
Null samples used in CRC calculations : Yes
Used interface : Native Win32 interface for Win NT & 2000

Used output format : Internal WAV Routines
Sample format : 44.100 Hz; 16 Bit; Stereo


TOC of the extracted CD

Track | Start | Length | Start sector | End sector
––––––––––––––––––––––––––––-
1 | 0:00.00 | 4:36.50 | 0 | 20749
2 | 4:36.50 | 5:23.20 | 20750 | 44994
3 | 9:59.70 | 7:22.32 | 44995 | 78176
4 | 17:22.27 | 4:59.25 | 78177 | 100626
5 | 22:21.52 | 3:42.13 | 100627 | 117289
6 | 26:03.65 | 4:10.10 | 117290 | 136049
7 | 30:14.00 | 3:41.67 | 136050 | 152691
8 | 33:55.67 | 4:44.63 | 152692 | 174054
9 | 38:40.55 | 5:35.22 | 174055 | 199201


Range status and errors

Selected range

Filename C:\Documents and Settings\Admin\Рабочий стол\Rip by ALLexxess\Stevie Wonder\1973 Innervisions (Universal Music Japan SHM-CD 2012)\Stevie Wonder - Innervisions.wav

Peak level 100.0 %
Extraction speed 5.7 X
Range quality 99.9 %
Test CRC 3A0D5BA6
Copy CRC 3A0D5BA6
Copy OK

No errors occurred


AccurateRip summary

Track 1 accurately ripped (confidence 2) [0B21E291] (AR v1)
Track 2 accurately ripped (confidence 2) [FCD074C0] (AR v1)
Track 3 accurately ripped (confidence 2) [525DED3A] (AR v1)
Track 4 accurately ripped (confidence 2) [CCC26FAB] (AR v1)
Track 5 accurately ripped (confidence 2) [64F00DDC] (AR v1)
Track 6 accurately ripped (confidence 2) [72F02AA9] (AR v1)
Track 7 accurately ripped (confidence 2) [3921DD04] (AR v1)
Track 8 accurately ripped (confidence 2) [99CE4CE8] (AR v1)
Track 9 accurately ripped (confidence 2) [190B4702] (AR v1)

All tracks accurately ripped

End of status report

==== Log checksum 49117AF382A3C7F90070D0ACB73E8BB4F7E65CC9A7B2DAF2CB02892A4493FC1A ====

foobar2000 1.2 / Dynamic Range Meter 1.1.1
log date: 2017-07-06 23:18:17

––––––––––––––––––––––––––––––––––––––––
Analyzed: Stevie Wonder / Innervisions
––––––––––––––––––––––––––––––––––––––––

DR Peak RMS Duration Track
––––––––––––––––––––––––––––––––––––––––
DR11 0.00 dB -12.42 dB 4:37 01-Too High
DR11 0.00 dB -13.64 dB 5:23 02-Visions
DR11 0.00 dB -12.76 dB 7:22 03-Living For The City
DR9 0.00 dB -11.41 dB 4:59 04-Golden Lady
DR12 0.00 dB -13.19 dB 3:42 05-Higher Ground
DR11 0.00 dB -12.81 dB 4:10 06-Jesus Children Of America
DR10 0.00 dB -13.09 dB 3:42 07-All In Love Is Fair
DR10 0.00 dB -11.59 dB 4:45 08-Don't You Worry 'Bout A Thing
DR10 0.00 dB -12.15 dB 5:35 09-He's Misstra Know-It-All
––––––––––––––––––––––––––––––––––––––––

Number of tracks: 9
Official DR value: DR11

Samplerate: 44100 Hz
Channels: 2
Bits per sample: 16
Bitrate: 932 kbps
Codec: FLAC
================================================================================




Stevie Wonder - Albums Collection 1966-1985 (14CD) Japanese SHM-CD Reissue 2012 [Re-Up]

Stevie Wonder - Fulfillingness' First Finale (1974) Japanese SHM-CD Reissue 2012
EAC | FLAC | Image (Cue&Log) ~ 271 Mb | Mp3 (CBR320) ~ 97 Mb | Scans ~ 51 Mb
Label: Universal Music Japan | # UICY-20353 | Time: 00:42:37

After the righteous anger and occasional despair of the socially motivated Innervisions, Stevie Wonder returned with a relationship record: Fulfillingness' First Finale. The cover pictures his life as an enormous wheel, part of which he's looking ahead to and part of which he's already completed (the latter with accompanying images of Little Stevie, JFK and MLK, the Motor Town Revue bus, a child with balloons, his familiar Taurus logo, and multiple Grammy awards). The songs and arrangements are the warmest since Talking Book, and Stevie positively caresses his vocals on this set, encompassing the vagaries of love, from dreaming of it ("Creepin'") to being bashful of it ("Too Shy to Say") to knowing when it's over ("It Ain't No Use"). The two big singles are "Boogie on Reggae Woman," with a deep electronic groove balancing organic congas and gospel piano, and "You Haven't Done Nothin'," an acidic dismissal of President Nixon and the Watergate controversy (he'd already written "He's Misstra Know-It-All" on the same topic). As before, Fulfillingness' First Finale is mostly the work of a single man; Stevie invited over just a bare few musicians, and most of those were background vocalists (though of the finest caliber: Minnie Riperton, Paul Anka, Deniece Williams, and the Jackson 5). Also as before, the appearances are perfectly chosen; "Too Shy to Say" can only benefit from the acoustic bass of Motown institution James Jamerson and the heavenly steel guitar of Sneaky Pete Kleinow, while the Jackson 5 provide some righteous amens to Stevie's preaching on "You Haven't Done Nothin'." It's also very refreshing to hear more songs devoted to the many and varied stages of romance, among them "It Ain't No Use," "Too Shy to Say," "Please Don't Go." The only element lacking here, in comparison to the rest of his string of brilliant early-'70s records, is a clear focus; Fulfillingness' First Finale is more a collection of excellent songs than an excellent album.

Review by John Bush, Allmusic.com

Tracklist:

01. Smile Please 03:28
02. Heaven Is 10 Zillion Light Years Away 05:02
03. Too Shy To Say 03:28
04. Boogie On Reggae Woman 04:57
05. Creepin' 04:22
06. You Haven't Done Nothin' 03:22
07. It Ain't No Use 04:00
08. They Won't Go When I Go 05:58
09. Bird Of Beauty 03:48
10. Please Don't Go 04:07


Exact Audio Copy V1.0 beta 3 from 29. August 2011

EAC extraction logfile from 16. October 2012, 20:22

Stevie Wonder / Fulfillingness' First Finale

Used drive : HL-DT-STDVDRAM GSA-H60N Adapter: 2 ID: 0

Read mode : Secure
Utilize accurate stream : Yes
Defeat audio cache : Yes
Make use of C2 pointers : No

Read offset correction : 667
Overread into Lead-In and Lead-Out : No
Fill up missing offset samples with silence : Yes
Delete leading and trailing silent blocks : No
Null samples used in CRC calculations : Yes
Used interface : Native Win32 interface for Win NT & 2000

Used output format : Internal WAV Routines
Sample format : 44.100 Hz; 16 Bit; Stereo


TOC of the extracted CD

Track | Start | Length | Start sector | End sector
––––––––––––––––––––––––––––-
1 | 0:00.00 | 3:28.27 | 0 | 15626
2 | 3:28.27 | 5:02.40 | 15627 | 38316
3 | 8:30.67 | 3:28.00 | 38317 | 53916
4 | 11:58.67 | 4:57.23 | 53917 | 76214
5 | 16:56.15 | 4:22.57 | 76215 | 95921
6 | 21:18.72 | 3:22.53 | 95922 | 111124
7 | 24:41.50 | 4:00.67 | 111125 | 129191
8 | 28:42.42 | 5:58.70 | 129192 | 156111
9 | 34:41.37 | 3:48.35 | 156112 | 173246
10 | 38:29.72 | 4:07.30 | 173247 | 191801


Range status and errors

Selected range

Filename C:\Documents and Settings\Admin\Рабочий стол\Rip by ALLexxess\Stevie Wonder\1974 Fulfillingness' First Finale (Universal Music Japan SHM-CD 2012)\Stevie Wonder - Fulfillingness' First Finale.wav

Peak level 100.0 %
Extraction speed 5.6 X
Range quality 100.0 %
Test CRC E7586457
Copy CRC E7586457
Copy OK

No errors occurred


AccurateRip summary

Track 1 accurately ripped (confidence 3) [EDB43E99] (AR v1)
Track 2 accurately ripped (confidence 3) [29B9A118] (AR v1)
Track 3 accurately ripped (confidence 3) [76BE184E] (AR v1)
Track 4 accurately ripped (confidence 3) [BEBFA7AC] (AR v1)
Track 5 accurately ripped (confidence 3) [2B9BE4B7] (AR v1)
Track 6 accurately ripped (confidence 3) [957841A8] (AR v1)
Track 7 accurately ripped (confidence 3) [6DE33954] (AR v1)
Track 8 accurately ripped (confidence 3) [1AE976DD] (AR v1)
Track 9 accurately ripped (confidence 3) [28DED5C9] (AR v1)
Track 10 accurately ripped (confidence 3) [C518353E] (AR v1)

All tracks accurately ripped

End of status report

==== Log checksum 264B16A25AA070918CAC47D82BE679961DC53FC65132168D6F0868B74AA39378 ====

–––––––––––––––––––––––-
Statistics for: Stevie Wonder - Fulfillingness' First Finale.wav
Number of Samples: 112779576
–––––––––––––––––––––––-

left right

Peak value: over –- 0.00 dB
Avg RMS: -11.32 dB –- -12.49 dB
DR channel: 9.33 dB –- 10.47 dB
–––––––––––––––––––––––-

Official DR value: DR10
===============================================




Stevie Wonder - Albums Collection 1966-1985 (14CD) Japanese SHM-CD Reissue 2012 [Re-Up]

Stevie Wonder - Songs In The Key Of Life (1976) 2CD Japanese SHM-CD Reissue 2012
EAC | FLAC | Image (Cue&Log) ~ 735 Mb | Mp3 (CBR320) ~ 240 Mb | Scans ~ 83 Mb
Label: Universal Music Japan | # UICY-20354-20355 | Time: 01:45:05

Songs in the Key of Life was Stevie Wonder's longest, most ambitious collection of songs, a two-LP (plus accompanying EP) set that – just as the title promised – touched on nearly every issue under the sun, and did it all with ambitious (even for him), wide-ranging arrangements and some of the best performances of Wonder's career. The opening "Love's in Need of Love Today" and "Have a Talk with God" are curiously subdued, but Stevie soon kicks into gear with "Village Ghetto Land," a fierce exposé of ghetto neglect set to a satirical Baroque synthesizer. Hot on its heels comes the torrid fusion jam "Contusion," a big, brassy hit tribute to the recently departed Duke Ellington in "Sir Duke," and (another hit, this one a Grammy winner as well) the bumping poem to his childhood, "I Wish." Though they didn't necessarily appear in order, Songs in the Key of Life contains nearly a full album on love and relationships, along with another full album on issues social and spiritual. Fans of the love album Talking Book can marvel that he sets the bar even higher here, with brilliant material like the tenderly cathartic and gloriously redemptive "Joy Inside My Tears," the two-part, smooth-and-rough "Ordinary Pain," the bitterly ironic "All Day Sucker," or another classic heartbreaker, "Summer Soft." Those inclined toward Stevie Wonder the social-issues artist had quite a few songs to focus on as well: "Black Man" was a Bicentennial school lesson on remembering the vastly different people who helped build America; "Pastime Paradise" examined the plight of those who live in the past and have little hope for the future; "Village Ghetto Land" brought listeners to a nightmare of urban wasteland; and "Saturn" found Stevie questioning his kinship with the rest of humanity and amusingly imagining paradise as a residency on a distant planet. If all this sounds overwhelming, it is; Stevie Wonder had talent to spare during the mid-'70s, and instead of letting the reserve trickle out during the rest of the decade, he let it all go with one massive burst. (His only subsequent record of the '70s was the similarly gargantuan but largely instrumental soundtrack Journey Through the Secret Life of Plants.)

Review by John Bush, Allmusic.com

Tracklist:

CD1:

01. Love's In Need Of Love Today 07:06
02. Have A Talk With God 02:42
03. Village Ghetto Land 03:25
04. Contusion 03:45
05. Sir Duke 03:54
06. I Wish 04:12
07. Knocks Me Off My Feet 03:36
08. Pastime Paradise 03:27
09. Summer Soft 04:14
10. Ordinary Pain 06:23


CD2:

01. Isn't She Lovely 06:34
02. Joy Inside My Tears 06:29
03. Black Man 08:29
04. Ngiculela - Es Una Historia - I Am Singing 03:48
05. If It's Magic 03:12
06. As 07:08
07. Another Star 08:28

A Something's Extra Bonus:
08. Saturn 04:53
09. Ebony Eyes 04:08
10. All Day Sucker 05:05
11. Easy Goin' Evening (My Mama's Call) 03:56


Exact Audio Copy V1.0 beta 3 from 29. August 2011

EAC extraction logfile from 14. October 2012, 20:10

Stevie Wonder / Songs In The Key Of Life CD1

Used drive : HL-DT-STDVDRAM GSA-H60N Adapter: 2 ID: 0

Read mode : Secure
Utilize accurate stream : Yes
Defeat audio cache : Yes
Make use of C2 pointers : No

Read offset correction : 667
Overread into Lead-In and Lead-Out : No
Fill up missing offset samples with silence : Yes
Delete leading and trailing silent blocks : No
Null samples used in CRC calculations : Yes
Used interface : Native Win32 interface for Win NT & 2000

Used output format : Internal WAV Routines
Sample format : 44.100 Hz; 16 Bit; Stereo


TOC of the extracted CD

Track | Start | Length | Start sector | End sector
––––––––––––––––––––––––––––-
1 | 0:00.00 | 7:06.12 | 0 | 31961
2 | 7:06.12 | 2:42.30 | 31962 | 44141
3 | 9:48.42 | 3:25.08 | 44142 | 59524
4 | 13:13.50 | 3:45.72 | 59525 | 76471
5 | 16:59.47 | 3:54.08 | 76472 | 94029
6 | 20:53.55 | 4:12.27 | 94030 | 112956
7 | 25:06.07 | 3:36.35 | 112957 | 129191
8 | 28:42.42 | 3:27.53 | 129192 | 144769
9 | 32:10.20 | 4:14.07 | 144770 | 163826
10 | 36:24.27 | 6:23.13 | 163827 | 192564


Range status and errors

Selected range

Filename C:\Documents and Settings\Admin\Рабочий стол\Rip by ALLexxess\Stevie Wonder\1976 Songs In The Key Of Life (2SHM-CD Set Universal Music Japan 2012)\CD1\Stevie Wonder - Songs In The Key Of Life CD1.wav

Peak level 100.0 %
Extraction speed 1.9 X
Range quality 100.0 %
Test CRC 3F9CBA7C
Copy CRC 3F9CBA7C
Copy OK

No errors occurred


AccurateRip summary

Track 1 accurately ripped (confidence 8) [81D150B8] (AR v1)
Track 2 accurately ripped (confidence 8) [2DCBDEF2] (AR v1)
Track 3 accurately ripped (confidence 8) [CA7AA9CE] (AR v1)
Track 4 accurately ripped (confidence 8) [853D20B3] (AR v1)
Track 5 accurately ripped (confidence 8) [EC58B538] (AR v1)
Track 6 accurately ripped (confidence 8) [092D1C49] (AR v1)
Track 7 accurately ripped (confidence 8) [29545533] (AR v1)
Track 8 accurately ripped (confidence 8) [57D40D78] (AR v1)
Track 9 accurately ripped (confidence 8) [F09B358A] (AR v1)
Track 10 accurately ripped (confidence 8) [B58D4D10] (AR v1)

All tracks accurately ripped

End of status report

==== Log checksum B159C044B24539DA54B821C78B17EA2C8EE21EC6DF8708288165742DBA4A71E6 ====

Exact Audio Copy V1.0 beta 3 from 29. August 2011

EAC extraction logfile from 14. October 2012, 18:56

Stevie Wonder / Songs In The Key Of Life CD2

Used drive : HL-DT-STDVDRAM GSA-H60N Adapter: 2 ID: 0

Read mode : Secure
Utilize accurate stream : Yes
Defeat audio cache : Yes
Make use of C2 pointers : No

Read offset correction : 667
Overread into Lead-In and Lead-Out : No
Fill up missing offset samples with silence : Yes
Delete leading and trailing silent blocks : No
Null samples used in CRC calculations : Yes
Used interface : Native Win32 interface for Win NT & 2000

Used output format : Internal WAV Routines
Sample format : 44.100 Hz; 16 Bit; Stereo


TOC of the extracted CD

Track | Start | Length | Start sector | End sector
––––––––––––––––––––––––––––-
1 | 0:00.00 | 6:34.45 | 0 | 29594
2 | 6:34.45 | 6:29.42 | 29595 | 58811
3 | 13:04.12 | 8:29.38 | 58812 | 97024
4 | 21:33.50 | 3:48.40 | 97025 | 114164
5 | 25:22.15 | 3:12.10 | 114165 | 128574
6 | 28:34.25 | 7:08.20 | 128575 | 160694
7 | 35:42.45 | 8:28.17 | 160695 | 198811
8 | 44:10.62 | 4:53.58 | 198812 | 220844
9 | 49:04.45 | 4:08.70 | 220845 | 239514
10 | 53:13.40 | 5:05.52 | 239515 | 262441
11 | 58:19.17 | 3:56.70 | 262442 | 280211


Range status and errors

Selected range

Filename C:\Documents and Settings\Admin\Рабочий стол\Rip by ALLexxess\Stevie Wonder\1976 Songs In The Key Of Life (2SHM-CD Set Universal Music Japan 2012)\CD2\Stevie Wonder - Songs In The Key Of Life CD2.wav

Peak level 100.0 %
Extraction speed 6.3 X
Range quality 100.0 %
Test CRC 92A7CE74
Copy CRC 92A7CE74
Copy OK

No errors occurred


AccurateRip summary

Track 1 cannot be verified as accurate (confidence 7) [11AA6BC6], AccurateRip returned [1E5A569D] (AR v2)
Track 2 cannot be verified as accurate (confidence 7) [E6B29BBE], AccurateRip returned [6F7EFF58] (AR v2)
Track 3 cannot be verified as accurate (confidence 7) [69E3816F], AccurateRip returned [C92F3722] (AR v2)
Track 4 cannot be verified as accurate (confidence 7) [59DD02C2], AccurateRip returned [2CCD062B] (AR v2)
Track 5 cannot be verified as accurate (confidence 7) [FA0B370F], AccurateRip returned [832A4F4F] (AR v2)
Track 6 cannot be verified as accurate (confidence 7) [297FDF02], AccurateRip returned [EA283F33] (AR v2)
Track 7 cannot be verified as accurate (confidence 7) [A00B95C0], AccurateRip returned [D3931DC2] (AR v2)
Track 8 cannot be verified as accurate (confidence 7) [95133B70], AccurateRip returned [FA7B764D] (AR v2)
Track 9 cannot be verified as accurate (confidence 7) [5C7A6BEE], AccurateRip returned [BDC5CDA9] (AR v2)
Track 10 cannot be verified as accurate (confidence 7) [0D6735FE], AccurateRip returned [4588C9C9] (AR v2)
Track 11 cannot be verified as accurate (confidence 7) [EE1C7576], AccurateRip returned [082902A9] (AR v2)

No tracks could be verified as accurate
You may have a different pressing from the one(s) in the database

End of status report

==== Log checksum 2C39D82BFA5A02AAF28D33E479252EE92814DDE91692016CCBBA4E2EEA6F00EE ====

–––––––––––––––––––––––-
Statistics for: Stevie Wonder - Songs In The Key Of Life CD1.wav
Number of Samples: 113228220
–––––––––––––––––––––––-

left right

Peak value: over –- over
Avg RMS: -13.40 dB –- -14.07 dB
DR channel: 10.85 dB –- 11.56 dB
–––––––––––––––––––––––-

Official DR value: DR11
===============================================

–––––––––––––––––––––––-
Statistics for: Stevie Wonder - Songs In The Key Of Life CD2.wav
Number of Samples: 164764656
–––––––––––––––––––––––-

left right

Peak value: over –- over
Avg RMS: -12.86 dB –- -13.36 dB
DR channel: 10.62 dB –- 11.22 dB
–––––––––––––––––––––––-

Official DR value: DR11
===============================================




Stevie Wonder - Albums Collection 1966-1985 (14CD) Japanese SHM-CD Reissue 2012 [Re-Up]

Stevie Wonder - Journey Through The Secret Life Of Plants (1979) 2CD Japanese SHM-CD Reissue 2012
EAC | FLAC | Image (Cue&Log) ~ 483 Mb | Mp3 (CBR320) ~ 205 Mb | Scans ~ 49 Mb
Label: Universal Music Japan | # UICY-20356-20357 | Time: 01:29:57

Stevie Wonder broke a three-year silence, one that followed a series of six classic albums released within six years, with this double album, the score/soundtrack to a little-seen environmental documentary directed by Wild Bunch co-screenwriter Walon Green. From the release of Songs in the Key of Life through the release of Plants, Wonder had been active, actually, but only as a collaborator, working with Ramsey Lewis, the Pointer Sisters, Minnie Riperton, Syreeta, Ronnie Foster, and Michael Jackson. Even so, three years was a considerable lag between albums. Anticipation was so high that this release peaked at number four on the Billboard 200 and R&B album charts. It quickly slipped to footnote status; when Wonder’s 1972-1980 albums were reissued in 2000, it was left out of the program. Plants is a sprawling, fascinating album. Though it is dominated by synthesizer-heavy instrumental pieces with evocative titles, there is a handful of full-blown songs. The gorgeous, mostly acoustic ballad “Send One Your Love” was a Top Ten R&B single, while the joyous “Outside My Window” registered in the Top 60. Beyond that, there’s the deep classic “Come Back as a Flower,” a gently lapping, piano-led ballad featuring Syreeta on vocals. Otherwise, there are playfully oddball tracks like “Venus’ Flytrap and the Bug,” where Wonder chirps “Please don’t eat me!” through robotizing effects, and “A Seed’s a Star,” which incorporates crowd noise, a robotized monologue, and a shrieking Tata Vega over a funkier and faster version of Yellow Magic Orchestra. The album is not for everyone, but it suited its purpose and allowed its maker an amount of creative wiggle room that few major-label artists experience.

Review by Andy Kellman, Allmusic.com

Tracklist:

CD1:

01. Earth's Creation 04:06
02. The First Garden 02:32
03. Voyage To India 06:30
04. Same Old Story 03:44
05. Venus' Flytrap And The Bug 02:25
06. Ai No, Sono 02:05
07. Seasons 02:54
08. Power Flower 05:30
09. Send One Your Love (Instrumental) 03:05
10. Race Babbling 08:53

CD2:

01. Send One Your Love 04:02
02. Outside My Window 05:29
03. Black Orchid 03:47
04. Ecclesiastes 03:48
05. Kesse Ye Lolo De Ye 02:59
06. Come Back As A Flower 04:58
07. A Seed's A Star / Tree Medley 05:54
08. The Secret Life Of Plants 04:15
09. Tree 05:48
10. Finale 07:03


Exact Audio Copy V1.0 beta 3 from 29. August 2011

EAC extraction logfile from 14. October 2012, 10:36

Stevie Wonder / Journey Through The Secret Life Of Plants CD1

Used drive : HL-DT-STDVDRAM GSA-H60N Adapter: 2 ID: 0

Read mode : Secure
Utilize accurate stream : Yes
Defeat audio cache : Yes
Make use of C2 pointers : No

Read offset correction : 667
Overread into Lead-In and Lead-Out : No
Fill up missing offset samples with silence : Yes
Delete leading and trailing silent blocks : No
Null samples used in CRC calculations : Yes
Used interface : Native Win32 interface for Win NT & 2000

Used output format : Internal WAV Routines
Sample format : 44.100 Hz; 16 Bit; Stereo


TOC of the extracted CD

Track | Start | Length | Start sector | End sector
––––––––––––––––––––––––––––-
1 | 0:00.00 | 4:06.68 | 0 | 18517
2 | 4:06.68 | 2:32.02 | 18518 | 29919
3 | 6:38.70 | 6:30.15 | 29920 | 59184
4 | 13:09.10 | 3:44.63 | 59185 | 76047
5 | 16:53.73 | 2:25.45 | 76048 | 86967
6 | 19:19.43 | 2:05.05 | 86968 | 96347
7 | 21:24.48 | 2:54.65 | 96348 | 109462
8 | 24:19.38 | 5:30.15 | 109463 | 134227
9 | 29:49.53 | 3:05.57 | 134228 | 148159
10 | 32:55.35 | 8:53.20 | 148160 | 188154


Range status and errors

Selected range

Filename C:\Documents and Settings\Admin\Рабочий стол\Rip by ALLexxess\Stevie Wonder\1979 Journey Through The Secret Life Of Plants (2SHM-CD Set Universal Music Japan 2012)\CD1\Stevie Wonder - Journey Through The Secret Life Of Plants C

Peak level 100.0 %
Extraction speed 5.5 X
Range quality 100.0 %
Test CRC 79826E90
Copy CRC 79826E90
Copy OK

No errors occurred


AccurateRip summary

Track 1 accurately ripped (confidence 2) [ABA571A9] (AR v1)
Track 2 accurately ripped (confidence 2) [9E227AE5] (AR v1)
Track 3 accurately ripped (confidence 2) [6F3AB319] (AR v1)
Track 4 accurately ripped (confidence 2) [8B3DA1C4] (AR v1)
Track 5 accurately ripped (confidence 2) [50D36266] (AR v1)
Track 6 accurately ripped (confidence 2) [02738FA7] (AR v1)
Track 7 accurately ripped (confidence 2) [126699B7] (AR v1)
Track 8 accurately ripped (confidence 2) [AF89922D] (AR v1)
Track 9 accurately ripped (confidence 2) [4CF57CD4] (AR v1)
Track 10 accurately ripped (confidence 2) [6C1DD852] (AR v1)

All tracks accurately ripped

End of status report

==== Log checksum 06651A5A1ACEC11BC1A8DC5AE6ED6830C65A59910C8DCC90335132F97278A34D ====

Exact Audio Copy V1.0 beta 3 from 29. August 2011

EAC extraction logfile from 14. October 2012, 11:15

Stevie Wonder / Journey Through The Secret Life Of Plants CD2

Used drive : HL-DT-STDVDRAM GSA-H60N Adapter: 2 ID: 0

Read mode : Secure
Utilize accurate stream : Yes
Defeat audio cache : Yes
Make use of C2 pointers : No

Read offset correction : 667
Overread into Lead-In and Lead-Out : No
Fill up missing offset samples with silence : Yes
Delete leading and trailing silent blocks : No
Null samples used in CRC calculations : Yes
Used interface : Native Win32 interface for Win NT & 2000

Used output format : Internal WAV Routines
Sample format : 44.100 Hz; 16 Bit; Stereo


TOC of the extracted CD

Track | Start | Length | Start sector | End sector
––––––––––––––––––––––––––––-
1 | 0:00.00 | 4:02.10 | 0 | 18159
2 | 4:02.10 | 5:29.03 | 18160 | 42837
3 | 9:31.13 | 3:47.55 | 42838 | 59917
4 | 13:18.68 | 3:48.27 | 59918 | 77044
5 | 17:07.20 | 2:59.13 | 77045 | 90482
6 | 20:06.33 | 4:58.47 | 90483 | 112879
7 | 25:05.05 | 5:54.20 | 112880 | 139449
8 | 30:59.25 | 4:15.73 | 139450 | 158647
9 | 35:15.23 | 5:48.02 | 158648 | 184749
10 | 41:03.25 | 7:03.63 | 184750 | 216537


Range status and errors

Selected range

Filename C:\Documents and Settings\Admin\Рабочий стол\Rip by ALLexxess\Stevie Wonder\1979 Journey Through The Secret Life Of Plants (2SHM-CD Set Universal Music Japan 2012)\CD2\Stevie Wonder - Journey Through The Secret Life Of Plants C

Peak level 100.0 %
Extraction speed 5.9 X
Range quality 100.0 %
Test CRC 86AE0860
Copy CRC 86AE0860
Copy OK

No errors occurred


AccurateRip summary

Track 1 accurately ripped (confidence 2) [0835D011] (AR v1)
Track 2 accurately ripped (confidence 2) [4A668930] (AR v1)
Track 3 accurately ripped (confidence 2) [9AC049A5] (AR v1)
Track 4 accurately ripped (confidence 2) [2EEC7E66] (AR v1)
Track 5 accurately ripped (confidence 2) [877E915A] (AR v1)
Track 6 accurately ripped (confidence 2) [C1234CCA] (AR v1)
Track 7 accurately ripped (confidence 2) [A6E9D227] (AR v1)
Track 8 accurately ripped (confidence 2) [382E41F6] (AR v1)
Track 9 accurately ripped (confidence 2) [C857BA38] (AR v1)
Track 10 not present in database

9 track(s) accurately ripped
1 track(s) not present in the AccurateRip database

Some tracks could not be verified as accurate

End of status report

==== Log checksum 852D7E2BCB18BAFC1F5F956C226C22828E1863E263EEFCC4AF9888044A944079 ====

–––––––––––––––––––––––-
Statistics for: Stevie Wonder - Journey Through The Secret Life Of Plants CD1.wav
Number of Samples: 110635140
–––––––––––––––––––––––-

left right

Peak value: over –- over
Avg RMS: -20.77 dB –- -20.48 dB
DR channel: 17.24 dB –- 16.72 dB
–––––––––––––––––––––––-

Official DR value: DR17
===============================================

–––––––––––––––––––––––-
Statistics for: Stevie Wonder - Journey Through The Secret Life Of Plants CD2.wav
Number of Samples: 127324344
–––––––––––––––––––––––-

left right

Peak value: over –- over
Avg RMS: -19.43 dB –- -19.55 dB
DR channel: 16.28 dB –- 16.36 dB
–––––––––––––––––––––––-

Official DR value: DR16
===============================================




Stevie Wonder - Albums Collection 1966-1985 (14CD) Japanese SHM-CD Reissue 2012 [Re-Up]

Stevie Wonder - Hotter Than July (1980) Japanese SHM-CD Reissue 2012
EAC | FLAC | Image (Cue&Log) ~ 280 Mb | Mp3 (CBR320) ~ 104 Mb | Scans ~ 65 Mb
Label: Universal Music Japan | # UICY-20358 | Time: 00:45:49

Four years after the pinnacle of Stevie Wonder's mid-'70s typhoon of classic albums, Hotter Than July was the proper follow-up to Songs in the Key of Life (his Journey Through the Secret Life of Plants concept record was actually a soundtrack to an obscure movie that fared miserably in theaters). It also found Wonder in a different musical climate than the one that savored his every move from 1972 to 1977. Disco and new wave had slowly crept their way into the mainstream record-buying public, and hindered the once-ample room for socially and politically charged lyrics. However, Wonder naysayed the trends and continues to do what he did best. Solid songwriting, musicianship, and production are evident in the majority of Hotter Than July. Wonder also carries on his tradition of penning songs normally not associated with his trademark sound, from the disco-tinged "All I Do" (originally planned to be released by Tammi Terrell almost ten years previously) to the reggae-influenced smash "Master Blaster (Jammin)," which went straight to the top of the R&B charts. While admittedly there are a few less-than-standard tracks, he closes the album on an amazing high note with one of the most aching ballads in his canon ("Lately") and a touching anthem to civil rights pioneer Martin Luther King, Jr. ("Happy Birthday"). While most definitely not on the same tier as Innervisions or Songs in the Key of Life, Hotter Than July is the portrait of an artist who still had the Midas touch, but stood at the crossroads of an illustrious career.

Review by Rob Theakston, Allmusic.com

Tracklist:

01. Did I Hear You Say You Love Me 04:07
02. All I Do 05:06
03. Rocket Love 04:39
04. I Ain't Gonna Stand For It 04:39
05. As If You Read My Mind 03:41
06. Master Blaster (Jammin') 05:07
07. Do Like You 04:25
08. Cash In Your Face 03:59
09. Lately 04:05
10. Happy Birthday 05:56


Exact Audio Copy V1.0 beta 3 from 29. August 2011

EAC extraction logfile from 14. October 2012, 11:49

Stevie Wonder / Hotter Than July

Used drive : HL-DT-STDVDRAM GSA-H60N Adapter: 2 ID: 0

Read mode : Secure
Utilize accurate stream : Yes
Defeat audio cache : Yes
Make use of C2 pointers : No

Read offset correction : 667
Overread into Lead-In and Lead-Out : No
Fill up missing offset samples with silence : Yes
Delete leading and trailing silent blocks : No
Null samples used in CRC calculations : Yes
Used interface : Native Win32 interface for Win NT & 2000

Used output format : Internal WAV Routines
Sample format : 44.100 Hz; 16 Bit; Stereo


TOC of the extracted CD

Track | Start | Length | Start sector | End sector
––––––––––––––––––––––––––––-
1 | 0:00.00 | 4:07.70 | 0 | 18594
2 | 4:07.70 | 5:06.42 | 18595 | 41586
3 | 9:14.37 | 4:39.20 | 41587 | 62531
4 | 13:53.57 | 4:39.08 | 62532 | 83464
5 | 18:32.65 | 3:41.47 | 83465 | 100086
6 | 22:14.37 | 5:07.68 | 100087 | 123179
7 | 27:22.30 | 4:25.12 | 123180 | 143066
8 | 31:47.42 | 3:59.23 | 143067 | 161014
9 | 35:46.65 | 4:05.15 | 161015 | 179404
10 | 39:52.05 | 5:56.47 | 179405 | 206151


Range status and errors

Selected range

Filename C:\Documents and Settings\Admin\Рабочий стол\Rip by ALLexxess\Stevie Wonder\1980 Hotter Than July (Universal Music Japan SHM-CD 2012)\Stevie Wonder - Hotter Than July.wav

Peak level 100.0 %
Extraction speed 5.3 X
Range quality 100.0 %
Test CRC 22397D10
Copy CRC 22397D10
Copy OK

No errors occurred


AccurateRip summary

Track 1 cannot be verified as accurate (confidence 4) [8845C107], AccurateRip returned [1D1DFD6E] (AR v2)
Track 2 cannot be verified as accurate (confidence 4) [979A79D1], AccurateRip returned [3AA6B736] (AR v2)
Track 3 cannot be verified as accurate (confidence 4) [6481EA2D], AccurateRip returned [D7B57C9F] (AR v2)
Track 4 cannot be verified as accurate (confidence 4) [8A24E44E], AccurateRip returned [5C4DB0C7] (AR v2)
Track 5 cannot be verified as accurate (confidence 4) [15035165], AccurateRip returned [8EFEDD9A] (AR v2)
Track 6 cannot be verified as accurate (confidence 4) [36903CD0], AccurateRip returned [9EEDBCDF] (AR v2)
Track 7 cannot be verified as accurate (confidence 4) [32BD082D], AccurateRip returned [58E43225] (AR v2)
Track 8 cannot be verified as accurate (confidence 4) [03F51D40], AccurateRip returned [D3A29D6F] (AR v2)
Track 9 cannot be verified as accurate (confidence 4) [85A623A9], AccurateRip returned [C6E118D3] (AR v2)
Track 10 cannot be verified as accurate (confidence 3) [CB875AA9], AccurateRip returned [C2251ABF] (AR v2)

No tracks could be verified as accurate
You may have a different pressing from the one(s) in the database

End of status report

==== Log checksum FC60158EE587B473ED67C9519EF11BE3B260D0E2688CEF71C8AE0ADB84222460 ====

–––––––––––––––––––––––-
Statistics for: Stevie Wonder - Hotter Than July.wav
Number of Samples: 121217376
–––––––––––––––––––––––-

left right

Peak value: -0.01 dB –- over
Avg RMS: -17.72 dB –- -17.67 dB
DR channel: 15.47 dB –- 15.10 dB
–––––––––––––––––––––––-

Official DR value: DR15
===============================================




Stevie Wonder - Albums Collection 1966-1985 (14CD) Japanese SHM-CD Reissue 2012 [Re-Up]

Stevie Wonder - In Square Circle (1985) Japanese SHM-CD Reissue 2012
EAC | FLAC | Image (Cue&Log) ~ 275 Mb | Mp3 (CBR320) ~ 105 Mb | Scans ~ 52 Mb
Label: Universal Music Japan | # UICY-20359 | Time: 00:45:52

Although it went platinum, nothing stands as better evidence of how cyclical the pop experience is than the response to In Square Circle. Wonder actually wrote some superb songs, and several, like "Overjoyed" and "I Love You Too Much," were superior to the hit single "Part-Time Lover." But that one zoomed to the top spot and became the album's definitive tune in the minds of many.

Review by Ron Wynn, Allmusic.com

Tracklist:

01. Part-Time Lover 04:12
02. I Love You Too Much 05:26
03. Whereabouts 04:18
04. Stranger On The Shore Of Love 04:59
05. Never In Your Sun 04:03
06. Spiritual Walkers 05:13
07. Land Of La La 05:11
08. Go Home 05:17
09. Overjoyed 03:42
10. It's Wrong (Apartheid) 03:26


Exact Audio Copy V1.0 beta 3 from 29. August 2011

EAC extraction logfile from 13. October 2012, 21:03

Stevie Wonder / In Square Circle

Used drive : HL-DT-STDVDRAM GSA-H60N Adapter: 2 ID: 0

Read mode : Secure
Utilize accurate stream : Yes
Defeat audio cache : Yes
Make use of C2 pointers : No

Read offset correction : 667
Overread into Lead-In and Lead-Out : No
Fill up missing offset samples with silence : Yes
Delete leading and trailing silent blocks : No
Null samples used in CRC calculations : Yes
Used interface : Native Win32 interface for Win NT & 2000

Used output format : Internal WAV Routines
Sample format : 44.100 Hz; 16 Bit; Stereo


TOC of the extracted CD

Track | Start | Length | Start sector | End sector
––––––––––––––––––––––––––––-
1 | 0:00.00 | 4:12.27 | 0 | 18926
2 | 4:12.27 | 5:26.50 | 18927 | 43426
3 | 9:39.02 | 4:18.58 | 43427 | 62834
4 | 13:57.60 | 4:59.57 | 62835 | 85316
5 | 18:57.42 | 4:03.48 | 85317 | 103589
6 | 23:01.15 | 5:13.17 | 103590 | 127081
7 | 28:14.32 | 5:11.48 | 127082 | 150454
8 | 33:26.05 | 5:17.32 | 150455 | 174261
9 | 38:43.37 | 3:42.13 | 174262 | 190924
10 | 42:25.50 | 3:26.50 | 190925 | 206424


Range status and errors

Selected range

Filename C:\Documents and Settings\Admin\Рабочий стол\Rip by ALLexxess\Stevie Wonder\1985 In Square Circle (Universal Music Japan SHM-CD 2012)\Stevie Wonder - In Square Circle.wav

Peak level 100.0 %
Extraction speed 5.8 X
Range quality 100.0 %
Test CRC 86F315F9
Copy CRC 86F315F9
Copy OK

No errors occurred


AccurateRip summary

Track 1 cannot be verified as accurate (confidence 2) [22A0A75F], AccurateRip returned [E55DA259] (AR v2)
Track 2 cannot be verified as accurate (confidence 2) [5709B697], AccurateRip returned [F11E23E8] (AR v2)
Track 3 cannot be verified as accurate (confidence 2) [0679BDD1], AccurateRip returned [5EEA8ECE] (AR v2)
Track 4 cannot be verified as accurate (confidence 2) [6AABDB64], AccurateRip returned [DA57B0C0] (AR v2)
Track 5 cannot be verified as accurate (confidence 2) [086C2C84], AccurateRip returned [C6CE22FF] (AR v2)
Track 6 cannot be verified as accurate (confidence 2) [7C80F54F], AccurateRip returned [CF5D34EE] (AR v2)
Track 7 cannot be verified as accurate (confidence 2) [9288AF67], AccurateRip returned [0712143B] (AR v2)
Track 8 cannot be verified as accurate (confidence 2) [7E82B095], AccurateRip returned [B9AF1054] (AR v2)
Track 9 cannot be verified as accurate (confidence 2) [E7B4556E], AccurateRip returned [8C0D7EC2] (AR v2)
Track 10 cannot be verified as accurate (confidence 2) [C3640691], AccurateRip returned [C962A370] (AR v2)

No tracks could be verified as accurate
You may have a different pressing from the one(s) in the database

End of status report

==== Log checksum 1DDB35C5EF369D713475D2B72901D89AA71430A048D829F7336AC61C8C700450 ====

–––––––––––––––––––––––-
Statistics for: Stevie Wonder - In Square Circle.wav
Number of Samples: 121377900
–––––––––––––––––––––––-

left right

Peak value: -0.00 dB –- -0.00 dB
Avg RMS: -17.24 dB –- -17.26 dB
DR channel: 15.31 dB –- 15.38 dB
–––––––––––––––––––––––-

Official DR value: DR15
===============================================




All thanks to original releaser - ALLexxess

More interesting music in My Blog