Subcategories

The Beatles - Dr. Ebbett's Blue Box Series (2006)

Posted By: v3122
The Beatles - Dr. Ebbett's Blue Box Series (2006)

The Beatles - Dr. Ebbett's Blue Box Series (2006)
EAC | Flac(Image) + Cue + Log & MP3 CBR 320Kbps
13CD | Dr. Ebbetts | ~ 2177 or 1381 Mb | Artwork(jpg) -> 42 Mb
Pop Rock, Classic Rock, Beat

~ Please Please Me (PCS 3042), With The Beatles (PCS 3045), A Hard Day's Night (PCS 3058), Beatles For Sale (PCS 3062), Help! (PCS 3071), Rubber Soul (PCS 3075), Revolver (PCS 7009), Sgt. Pepper's Lonely Hearts Club Band (PCS 7027), The Beatles (PSC 7067-7/8), Yellow Submarine (PCS 7070), Abbey Road (PCS 7088), Let It Be (PCS 7096) ~

Dr. Ebbets was a needledropper (a person who rips near mint/mint condition or unplayed vinyl records) who was famous in the bootleg/audiophile communities for his Beatles releases, which are regarded by some as being the best sounding versions of those albums.

He retired in 2009 due to the upcoming release of The Beatles, but returned in 2010 to release four new titles to his most dedicated customers.

~ discogs
The Beatles - Dr. Ebbett's Blue Box Series (2006):


Tracklist CD1. 1963 - Please Please Me (PCS 3042):
The Beatles - Dr. Ebbett's Blue Box Series (2006)

1. I Saw Her Standing There (2:58)
2. Misery (1:53)
3. Anna (Go to Him) (3:00)
4. Chains (2:29)
5. Boys (2:29)
6. Ask Me Why (2:30)
7. Please Please Me (2:04)
8. Love Me Do (2:24)
9. P.S. I Love You (2:07)
10. Baby It's You (2:45)
11. Do You Want to Know a Secret (2:01)
12. A Taste of Honey (2:08)
13. There's a Place (1:54)
14. Twist and Shout (2:36)

EAC extraction logfile from 25. April 2006, 9:53 for CD
The Beatles / Please Please Me

Used drive : LITE-ON DVDRW SOHW-1673S Adapter: 2 ID: 0
Read mode : Secure with NO C2, accurate stream, disable cache
Read offset correction : 12
Overread into Lead-In and Lead-Out : No

Used output format : Internal WAV Routines
44.100 Hz; 16 Bit; Stereo

Other options :
Fill up missing offset samples with silence : Yes
Delete leading and trailing silent blocks : No
Native Win32 interface for Win NT & 2000


Track 1
Filename C:\Please Please Me (DESS Blue Box Stereo)\01 - I Saw Her Standing There.wav

Peak level 99.9 %
Track quality 100.0 %
Test CRC C38558F6
Copy CRC C38558F6
Copy OK

Track 2
Filename C:\Please Please Me (DESS Blue Box Stereo)\02 - Misery.wav

Peak level 100.0 %
Track quality 100.0 %
Test CRC EFF1E3D2
Copy CRC EFF1E3D2
Copy OK

Track 3
Filename C:\Please Please Me (DESS Blue Box Stereo)\03 - Anna (Go to Him).wav

Peak level 99.4 %
Track quality 100.0 %
Test CRC BB14F01D
Copy CRC BB14F01D
Copy OK

Track 4
Filename C:\Please Please Me (DESS Blue Box Stereo)\04 - Chains.wav

Peak level 91.8 %
Track quality 100.0 %
Test CRC 78F3B977
Copy CRC 78F3B977
Copy OK

Track 5
Filename C:\Please Please Me (DESS Blue Box Stereo)\05 - Boys.wav

Peak level 98.7 %
Track quality 100.0 %
Test CRC 5BD15113
Copy CRC 5BD15113
Copy OK

Track 6
Filename C:\Please Please Me (DESS Blue Box Stereo)\06 - Ask Me Why.wav

Peak level 90.0 %
Track quality 99.9 %
Test CRC 78FBACF2
Copy CRC 78FBACF2
Copy OK

Track 7
Filename C:\Please Please Me (DESS Blue Box Stereo)\07 - Please Please Me.wav

Peak level 97.5 %
Track quality 99.9 %
Test CRC 42CB42D6
Copy CRC 42CB42D6
Copy OK

Track 8
Filename C:\Please Please Me (DESS Blue Box Stereo)\08 - Love Me Do.wav

Peak level 100.0 %
Track quality 100.0 %
Test CRC 4C7093CE
Copy CRC 4C7093CE
Copy OK

Track 9
Filename C:\Please Please Me (DESS Blue Box Stereo)\09 - P.S. I Love You.wav

Peak level 96.1 %
Track quality 100.0 %
Test CRC DB470C44
Copy CRC DB470C44
Copy OK

Track 10
Filename C:\Please Please Me (DESS Blue Box Stereo)\10 - Baby It's You.wav

Peak level 99.7 %
Track quality 99.9 %
Test CRC 5D1D71AB
Copy CRC 5D1D71AB
Copy OK

Track 11
Filename C:\Please Please Me (DESS Blue Box Stereo)\11 - Do You Want to Know a Secret.wav

Peak level 96.2 %
Track quality 100.0 %
Test CRC 7AC35D4B
Copy CRC 7AC35D4B
Copy OK

Track 12
Filename C:\Please Please Me (DESS Blue Box Stereo)\12 - Taste of Honey.wav

Peak level 99.6 %
Track quality 100.0 %
Test CRC D5C71250
Copy CRC D5C71250
Copy OK

Track 13
Filename C:\Please Please Me (DESS Blue Box Stereo)\13 - There's a Place.wav

Peak level 97.2 %
Track quality 100.0 %
Test CRC 1E19571B
Copy CRC 1E19571B
Copy OK

Track 14
Filename C:\Please Please Me (DESS Blue Box Stereo)\14 - Twist and Shout.wav

Peak level 100.0 %
Track quality 100.0 %
Test CRC A4A8E78A
Copy CRC A4A8E78A
Copy OK

No errors occured


End of status report


[CUETools log; Date: 12.01.2020 2:19:36; Version: 2.1.6]
[CTDB TOCID: s52HFTBlVwLZns1jVOFOT9QfG4Q-] found.
Track | CTDB Status
1 | (9/9) Accurately ripped
2 | (9/9) Accurately ripped
3 | (9/9) Accurately ripped
4 | (9/9) Accurately ripped
5 | (9/9) Accurately ripped
6 | (9/9) Accurately ripped
7 | (9/9) Accurately ripped
8 | (9/9) Accurately ripped
9 | (9/9) Accurately ripped
10 | (9/9) Accurately ripped
11 | (9/9) Accurately ripped
12 | (9/9) Accurately ripped
13 | (9/9) Accurately ripped
14 | (9/9) Accurately ripped
[AccurateRip ID: 0011bcaa-00bb6afd-b907d50e] found.
Track [ CRC | V2 ] Status
01 [6d41a425|d183d147] (2+0/4) Accurately ripped
02 [d0a9237d|001fcc3d] (0+0/2) No match
03 [8e6e9bb3|608367ed] (0+0/2) No match
04 [696194ab|0bc7ed33] (0+0/2) No match
05 [7af73d7f|5354aa72] (0+0/2) No match
06 [9d98d5e3|a54b970a] (0+0/2) No match
07 [409efe7d|a336dd11] (0+0/2) No match
08 [5ac5f6a8|56681ae8] (0+0/2) No match
09 [c1b77294|8fd3f293] (0+0/2) No match
10 [d5e8921a|7a3d3de1] (0+0/2) No match
11 [8f3810fa|b3ed577d] (0+0/2) No match
12 [a333833e|7be0691a] (0+0/2) No match
13 [e20764d2|3fc700da] (0+0/2) No match
14 [cfe2159b|db0b0219] (0+0/2) No match
Offsetted by -18:
01 [ce5f8a33] (2/4) Accurately ripped
02 [ff390c85] (2/2) Accurately ripped
03 [d09eb2a7] (2/2) Accurately ripped
04 [28e0825b] (2/2) Accurately ripped
05 [f4557a57] (2/2) Accurately ripped
06 [8d67018b] (2/2) Accurately ripped
07 [0ae8c19b] (2/2) Accurately ripped
08 [82cb9d26] (2/2) Accurately ripped
09 [7f556b74] (2/2) Accurately ripped
10 [287db662] (2/2) Accurately ripped
11 [ce362eba] (2/2) Accurately ripped
12 [ea3e3694] (2/2) Accurately ripped
13 [46d5b1de] (2/2) Accurately ripped
14 [1a97cda3] (2/2) Accurately ripped
Offsetted by -6:
01 [384b9b7f] (0/4) No match (V2 was not tested)
02 [8ad91bd5] (0/2) No match (V2 was not tested)
03 [f9d3f8af] (0/2) No match (V2 was not tested)
04 [53e1393b] (0/2) No match (V2 was not tested)
05 [f8c151c7] (0/2) No match (V2 was not tested)
06 [42dd8f1b] (0/2) No match (V2 was not tested)
07 [d9623f87] (0/2) No match (V2 was not tested)
08 [12c7d8d2] (0/2) No match (V2 was not tested)
09 [56417034] (0/2) No match (V2 was not tested)
10 [f16f9e32] (0/2) No match (V2 was not tested)
11 [a437703a] (0/2) No match (V2 was not tested)
12 [658c69b0] (0/2) No match (V2 was not tested)
13 [58f6d3d6] (0/2) No match (V2 was not tested)
14 [e8c952f3] (0/2) No match (V2 was not tested)

Track Peak [ CRC32 ] [W/O NULL] [ LOG ]
– 100,0 [374EE590] [7B4A050E]
01 99,9 [C38558F6] [B7B49ADB] CRC32
02 100,0 [EFF1E3D2] [B812CFC9] CRC32
03 99,4 [BB14F01D] [76B90BC4] CRC32
04 91,8 [78F3B977] [A2263677] CRC32
05 98,7 [5BD15113] [30FD1DB4] CRC32
06 90,0 [78FBACF2] [C62CABCB] CRC32
07 97,5 [42CB42D6] [99832907] CRC32
08 100,0 [4C7093CE] [FB7EFDB5] CRC32
09 96,1 [DB470C44] [0BB76E62] CRC32
10 99,7 [5D1D71AB] [E7944634] CRC32
11 96,2 [7AC35D4B] [72AE7CAE] CRC32
12 99,6 [D5C71250] [FEFE137B] CRC32
13 97,2 [1E19571B] [1A1B2F0B] CRC32
14 100,0 [A4A8E78A] [B059C1BF] CRC32


The Beatles - Dr. Ebbett's Blue Box Series (2006)

Tracklist CD2. 1963 - With The Beatles (PCS 3045):

1. It Won't Be Long (2:17)
2. All I've Got to Do (2:07)
3. All My Loving (2:12)
4. Don't Bother Me (2:33)
5. Little Child (1:50)
6. Till There Was You (2:17)
7. Please Mr. Postman (2:37)
8. Roll over Beethoven (2:49)
9. Hold Me Tight (2:35)
10. You've Really Got a Hold on Me (3:04)
11. I Wanna Be Your Man (2:03)
12. Devil in Her Heart (2:28)
13. Not a Second Time (2:09)
14. Money (2:49)

EAC extraction logfile from 1. January 2007, 22:52 for CD
The Beatles / With The Beatles

Used drive : QSI DVD-ROM SDR-081 Adapter: 1 ID: 0
Read mode : Secure with NO C2, accurate stream, disable cache
Read offset correction : 564
Overread into Lead-In and Lead-Out : No

Used output format : Internal WAV Routines
44.100 Hz; 16 Bit; Stereo

Other options :
Fill up missing offset samples with silence : Yes
Delete leading and trailing silent blocks : No
Native Win32 interface for Win NT & 2000


Track 1
Filename C:\Program Files\uTorrent\Downloads\The Beatles - With The Beatles (1963) [flac] {DESS Blue Box}\01 - It Won't Be Long.wav

Pre-gap length 0:00:02.00

Peak level 94.0 %
Track quality 100.0 %
Test CRC 3F94FAA8
Copy CRC 3F94FAA8
Copy OK

Track 2
Filename C:\Program Files\uTorrent\Downloads\The Beatles - With The Beatles (1963) [flac] {DESS Blue Box}\02 - All I've Got To Do.wav

Peak level 96.8 %
Track quality 100.0 %
Test CRC D1EF0179
Copy CRC D1EF0179
Copy OK

Track 3
Filename C:\Program Files\uTorrent\Downloads\The Beatles - With The Beatles (1963) [flac] {DESS Blue Box}\03 - All My Loving.wav

Peak level 95.1 %
Track quality 100.0 %
Test CRC CD808046
Copy CRC CD808046
Copy OK

Track 4
Filename C:\Program Files\uTorrent\Downloads\The Beatles - With The Beatles (1963) [flac] {DESS Blue Box}\04 - Don't Bother Me.wav

Peak level 97.3 %
Track quality 100.0 %
Test CRC DC1B1478
Copy CRC DC1B1478
Copy OK

Track 5
Filename C:\Program Files\uTorrent\Downloads\The Beatles - With The Beatles (1963) [flac] {DESS Blue Box}\05 - Little Child.wav

Peak level 96.3 %
Track quality 100.0 %
Test CRC 8E7BD3A3
Copy CRC 8E7BD3A3
Copy OK

Track 6
Filename C:\Program Files\uTorrent\Downloads\The Beatles - With The Beatles (1963) [flac] {DESS Blue Box}\06 - Till There Was You.wav

Peak level 96.9 %
Track quality 100.0 %
Test CRC 4CCB523E
Copy CRC 4CCB523E
Copy OK

Track 7
Filename C:\Program Files\uTorrent\Downloads\The Beatles - With The Beatles (1963) [flac] {DESS Blue Box}\07 - Please Mister Postman.wav

Peak level 98.4 %
Track quality 100.0 %
Test CRC CB33D39A
Copy CRC CB33D39A
Copy OK

Track 8
Filename C:\Program Files\uTorrent\Downloads\The Beatles - With The Beatles (1963) [flac] {DESS Blue Box}\08 - Roll Over Beethoven.wav

Peak level 99.2 %
Track quality 100.0 %
Test CRC DDD18EC6
Copy CRC DDD18EC6
Copy OK

Track 9
Filename C:\Program Files\uTorrent\Downloads\The Beatles - With The Beatles (1963) [flac] {DESS Blue Box}\09 - Hold Me Tight.wav

Peak level 100.0 %
Track quality 100.0 %
Test CRC 21F0B43E
Copy CRC 21F0B43E
Copy OK

Track 10
Filename C:\Program Files\uTorrent\Downloads\The Beatles - With The Beatles (1963) [flac] {DESS Blue Box}\10 - You Really Got A Hold On Me.wav

Peak level 97.8 %
Track quality 100.0 %
Test CRC 27CE1F7F
Copy CRC 27CE1F7F
Copy OK

Track 11
Filename C:\Program Files\uTorrent\Downloads\The Beatles - With The Beatles (1963) [flac] {DESS Blue Box}\11 - I Wanna Be Your Man.wav

Peak level 95.2 %
Track quality 100.0 %
Test CRC D3B353A9
Copy CRC D3B353A9
Copy OK

Track 12
Filename C:\Program Files\uTorrent\Downloads\The Beatles - With The Beatles (1963) [flac] {DESS Blue Box}\12 - Devil in Her Heart.wav

Peak level 92.9 %
Track quality 100.0 %
Test CRC 8EEFB0A5
Copy CRC 8EEFB0A5
Copy OK

Track 13
Filename C:\Program Files\uTorrent\Downloads\The Beatles - With The Beatles (1963) [flac] {DESS Blue Box}\13 - Not A Second Time.wav

Peak level 97.5 %
Track quality 100.0 %
Test CRC 1EE56D42
Copy CRC 1EE56D42
Copy OK

Track 14
Filename C:\Program Files\uTorrent\Downloads\The Beatles - With The Beatles (1963) [flac] {DESS Blue Box}\14 - Money.wav

Peak level 98.4 %
Track quality 99.9 %
Test CRC FAA460C4
Copy CRC FAA460C4
Copy OK

No errors occured


End of status report


[CUETools log; Date: 12.01.2020 2:21:13; Version: 2.1.6]
[CTDB TOCID: ZId7ZqDhRwAJBkdR7MZvwIji3oM-] found.
Track | CTDB Status
1 | (7/7) Accurately ripped
2 | (7/7) Accurately ripped
3 | (7/7) Accurately ripped
4 | (7/7) Accurately ripped
5 | (7/7) Accurately ripped
6 | (7/7) Accurately ripped
7 | (7/7) Accurately ripped
8 | (7/7) Accurately ripped
9 | (6/7) Accurately ripped
10 | (7/7) Accurately ripped
11 | (7/7) Accurately ripped
12 | (7/7) Accurately ripped
13 | (7/7) Accurately ripped
14 | (7/7) Accurately ripped
[AccurateRip ID: 0011097f-00b75742-bd07f60e] found.
Track [ CRC | V2 ] Status
01 [3ffe4225|8a3bf8ba] (0+0/2) No match
02 [a3af7ef4|c9ff70cd] (0+0/2) No match
03 [269b40a2|04575bcf] (0+0/2) No match
04 [f8f8abaa|ec84e322] (0+0/2) No match
05 [528263e9|bcf580ef] (0+0/2) No match
06 [c3271f90|b0c5e3ef] (0+0/2) No match
07 [96bcdd1a|7ba27360] (0+0/2) No match
08 [c2de2e30|2940747c] (0+0/2) No match
09 [fd53ff39|172484bf] (0+0/2) No match
10 [084ff7ef|26a92260] (0+0/2) No match
11 [856dbc69|1ab7535b] (0+0/2) No match
12 [ff38b904|7465dc6a] (0+0/2) No match
13 [da6435cb|794b25df] (0+0/2) No match
14 [eb4d87a0|c3919a47] (0+0/2) No match
Offsetted by -18:
01 [25d2cccf] (2/2) Accurately ripped
02 [860a7dfa] (2/2) Accurately ripped
03 [381d4758] (2/2) Accurately ripped
04 [ec959da2] (2/2) Accurately ripped
05 [435d9b79] (2/2) Accurately ripped
06 [62a733ef] (2/2) Accurately ripped
07 [18e7785c] (2/2) Accurately ripped
08 [543b5101] (2/2) Accurately ripped
09 [93c98dfb] (2/2) Accurately ripped
10 [b1e884fb] (2/2) Accurately ripped
11 [7249cdb7] (2/2) Accurately ripped
12 [63662d28] (2/2) Accurately ripped
13 [7a43c8b2] (2/2) Accurately ripped
14 [dee3d0bf] (2/2) Accurately ripped

Track Peak [ CRC32 ] [W/O NULL] [ LOG ]
– 100,0 [FF1C3690] [65940CE4]
01 94,0 [3F94FAA8] [12EDA0B0] CRC32
02 96,8 [D1EF0179] [69D2EB35] CRC32
03 95,1 [CD808046] [1CF8BDFC] CRC32
04 97,3 [DC1B1478] [C8263CE7] CRC32
05 96,3 [8E7BD3A3] [DED58CD5] CRC32
06 96,9 [4CCB523E] [589FA662] CRC32
07 98,4 [CB33D39A] [E7D182B1] CRC32
08 99,2 [DDD18EC6] [CAB297EC] CRC32
09 100,0 [21F0B43E] [970BD5AA] CRC32
10 97,8 [27CE1F7F] [07BE14FC] CRC32
11 95,2 [D3B353A9] [23C29511] CRC32
12 92,9 [8EEFB0A5] [EA5877C3] CRC32
13 97,5 [1EE56D42] [D79CD82B] CRC32
14 98,4 [5C7E287E] [761FB682] [FAA460C4]


The Beatles - Dr. Ebbett's Blue Box Series (2006)

Tracklist CD3. 1964 - A Hard Day's Night (PCS 3058):

1. A Hard Day's Night (2:38)
2. I Should Have Known Better (2:47)
3. If I Fell (2:23)
4. I'm Happy Just to Dance With You (2:00)
5. And I Love Her (2:33)
6. Tell Me Why (2:12)
7. Can't Buy Me Love (2:15)
8. Any Time at All (2:15)
9. I'll Cry Instead (1:49)
10. Things We Said Today (2:40)
11. When I Get Home (2:21)
12. You Can't Do That (2:39)
13. I'll Be Back (2:25)

EAC extraction logfile from 14. May 2006, 19:32 for CD
The Beatles / A Hard Day's Night (UK Stereo) (Ebbett PCS 3058)

Used drive : LITE-ON DVDRW SOHW-1673S Adapter: 2 ID: 0
Read mode : Secure with NO C2, accurate stream, disable cache
Read offset correction : 12
Overread into Lead-In and Lead-Out : No

Used output format : Internal WAV Routines
44.100 Hz; 16 Bit; Stereo

Other options :
Fill up missing offset samples with silence : Yes
Delete leading and trailing silent blocks : No
Native Win32 interface for Win NT & 2000


Track 1
Filename C:\The Beatles - A Hard Days Night (1964) [flac] (Dr Ebbetts Blue Box)\01 - A Hard Day's Night.wav

Pre-gap length 0:00:02.00

Peak level 100.0 %
Track quality 100.0 %
Test CRC 40342E07
Copy CRC 40342E07
Copy OK

Track 2
Filename C:\The Beatles - A Hard Days Night (1964) [flac] (Dr Ebbetts Blue Box)\02 - I Should Have Known Better.wav

Pre-gap length 0:00:00.02

Peak level 100.0 %
Track quality 100.0 %
Test CRC B5213742
Copy CRC B5213742
Copy OK

Track 3
Filename C:\The Beatles - A Hard Days Night (1964) [flac] (Dr Ebbetts Blue Box)\03 - If I Fell.wav

Pre-gap length 0:00:00.02

Peak level 94.7 %
Track quality 100.0 %
Test CRC 58B2371C
Copy CRC 58B2371C
Copy OK

Track 4
Filename C:\The Beatles - A Hard Days Night (1964) [flac] (Dr Ebbetts Blue Box)\04 - I'm Happy Just to Dance With You.wav

Pre-gap length 0:00:00.02

Peak level 93.1 %
Track quality 100.0 %
Test CRC 37D0B759
Copy CRC 37D0B759
Copy OK

Track 5
Filename C:\The Beatles - A Hard Days Night (1964) [flac] (Dr Ebbetts Blue Box)\05 - And I Love Her.wav

Pre-gap length 0:00:00.02

Peak level 91.6 %
Track quality 100.0 %
Test CRC F6B63926
Copy CRC F6B63926
Copy OK

Track 6
Filename C:\The Beatles - A Hard Days Night (1964) [flac] (Dr Ebbetts Blue Box)\06 - Tell Me Why.wav

Pre-gap length 0:00:00.02

Peak level 98.5 %
Track quality 99.9 %
Test CRC 40021DEB
Copy CRC 40021DEB
Copy OK

Track 7
Filename C:\The Beatles - A Hard Days Night (1964) [flac] (Dr Ebbetts Blue Box)\07 - Can't Buy Me Love.wav

Pre-gap length 0:00:00.01

Peak level 100.0 %
Track quality 100.0 %
Test CRC E324A654
Copy CRC E324A654
Copy OK

Track 8
Filename C:\The Beatles - A Hard Days Night (1964) [flac] (Dr Ebbetts Blue Box)\08 - Any Time at All.wav

Pre-gap length 0:00:00.02

Peak level 97.5 %
Track quality 99.9 %
Test CRC 9FC81068
Copy CRC 9FC81068
Copy OK

Track 9
Filename C:\The Beatles - A Hard Days Night (1964) [flac] (Dr Ebbetts Blue Box)\09 - I'll Cry Instead.wav

Pre-gap length 0:00:00.01

Peak level 89.8 %
Track quality 100.0 %
Test CRC 349A955B
Copy CRC 349A955B
Copy OK

Track 10
Filename C:\The Beatles - A Hard Days Night (1964) [flac] (Dr Ebbetts Blue Box)\10 - Things We Said Today.wav

Pre-gap length 0:00:00.02

Peak level 90.2 %
Track quality 100.0 %
Test CRC 980E7F06
Copy CRC 980E7F06
Copy OK

Track 11
Filename C:\The Beatles - A Hard Days Night (1964) [flac] (Dr Ebbetts Blue Box)\11 - When I Get Home.wav

Pre-gap length 0:00:00.02

Peak level 86.7 %
Track quality 100.0 %
Test CRC C1AE9166
Copy CRC C1AE9166
Copy OK

Track 12
Filename C:\The Beatles - A Hard Days Night (1964) [flac] (Dr Ebbetts Blue Box)\12 - You Can't Do That.wav

Pre-gap length 0:00:00.02

Peak level 100.0 %
Track quality 100.0 %
Test CRC 37366696
Copy CRC 37366696
Copy OK

Track 13
Filename C:\The Beatles - A Hard Days Night (1964) [flac] (Dr Ebbetts Blue Box)\13 - I'll Be Back.wav

Pre-gap length 0:00:00.01

Peak level 89.5 %
Track quality 99.9 %
Test CRC 67143988
Copy CRC 67143988
Copy OK

No errors occured


End of status report


[CUETools log; Date: 12.01.2020 2:23:10; Version: 2.1.6]
CDDBId mismatch: A807450D vs A407450D
[CTDB TOCID: f0zETFtIVdcHEEEYC8qYU35OEMo-] found.
Track | CTDB Status
1 | (2/2) Accurately ripped
2 | (2/2) Accurately ripped
3 | (2/2) Accurately ripped
4 | (2/2) Accurately ripped
5 | (2/2) Accurately ripped
6 | (2/2) Accurately ripped
7 | (2/2) Accurately ripped
8 | (2/2) Accurately ripped
9 | (2/2) Accurately ripped
10 | (2/2) Accurately ripped
11 | (2/2) Accurately ripped
12 | (2/2) Accurately ripped
13 | (2/2) Accurately ripped
[AccurateRip ID: 000f03f4-00951420-a407450d] found.
Track [ CRC | V2 ] Status
01 [1cfdbdc8|cce2321c] (0+0/1) No match
02 [4c7ada11|56496fd2] (0+0/1) No match
03 [f0a65a7c|8c189635] (0+0/1) No match
04 [91412db3|74a9c22c] (0+0/1) No match
05 [3100af4c|196d65bd] (0+0/1) No match
06 [3806a207|fc9ab820] (0+0/1) No match
07 [476bd7c5|1a89b896] (0+0/1) No match
08 [4c16c45e|b0ad7018] (0+0/1) No match
09 [f8ed6fb3|7adc8044] (0+0/1) No match
10 [eb179a1c|ca0d93d3] (0+0/1) No match
11 [c62b1f8c|dc82886a] (0+0/1) No match
12 [fcfb41f0|003a28dc] (0+0/1) No match
13 [383d5311|80f1ebd7] (0+0/1) No match
Offsetted by 6:
01 [b3ff454f] (1/1) Accurately ripped
02 [08b19550] (1/1) Accurately ripped
03 [daf3140f] (1/1) Accurately ripped
04 [1d2ebbb0] (1/1) Accurately ripped
05 [0fc0eabd] (1/1) Accurately ripped
06 [283a9b5e] (1/1) Accurately ripped
07 [efb27859] (1/1) Accurately ripped
08 [e2af2885] (1/1) Accurately ripped
09 [5dd87b6a] (1/1) Accurately ripped
10 [e232ecdc] (1/1) Accurately ripped
11 [4997c2e4] (1/1) Accurately ripped
12 [f917ec0e] (1/1) Accurately ripped
13 [20ab3611] (1/1) Accurately ripped

Track Peak [ CRC32 ] [W/O NULL] [ LOG ]
– 100,0 [80129BD0] [A173D9AE]
01 100,0 [66AEC36A] [CE9DD26E] [40342E07]
02 100,0 [DA399A8B] [B9786585] [B5213742]
03 94,7 [B064E92A] [604B2B91] CRC32 : offset 1241
04 93,1 [76A808FE] [E50F64F3] CRC32 : offset 1241
05 91,6 [EEB477E0] [D1E9F931] CRC32 : offset 1241
06 98,5 [7D44D6EF] [229BD37D] CRC32 : offset 1241
07 100,0 [E8DB45F1] [E845BD1E] CRC32 : offset 1241
08 97,5 [7065259A] [8AFDA20D] CRC32 : offset 1241
09 89,8 [BE22B704] [1C0E7F3C] CRC32 : offset 1241
10 90,2 [CA3FA096] [C212FA55] CRC32 : offset 1241
11 86,7 [D2BB6C1C] [8F146054] CRC32 : offset 1241
12 100,0 [C6498893] [0CA0EBC8] CRC32 : offset 1241
13 89,5 [9C0AF0C7] [6FA2F335] [67143988]


The Beatles - Dr. Ebbett's Blue Box Series (2006)

Tracklist CD4. 1964 - Beatles For Sale (PCS 3062):

1. No Reply (2:21)
2. I'm a Loser (2:34)
3. Baby's in Black (2:10)
4. Rock & Roll Music (2:35)
5. I'll Follow the Sun (1:53)
6. Mr. Moonlight (2:43)
7. Kansas City (Hey Hey Hey) (2:41)
8. Eight Days a Week (2:47)
9. Words of Love (2:09)
10. Honey Don't (3:03)
11. Every Little Thing (2:06)
12. I Don't Want to Spoil the Party (2:38)
13. What You're Doing (2:35)
14. Everybody's Trying to Be My Baby (2:26)

EAC extraction logfile from 25. April 2006, 1:12 for CD
The Beatles / Beatles For Sale (UK Stereo) (Ebbett PCS 3062)

Used drive : LITE-ON DVDRW SOHW-1673S Adapter: 2 ID: 0
Read mode : Secure with NO C2, accurate stream, disable cache
Read offset correction : 12
Overread into Lead-In and Lead-Out : No

Used output format : Internal WAV Routines
44.100 Hz; 16 Bit; Stereo

Other options :
Fill up missing offset samples with silence : Yes
Delete leading and trailing silent blocks : No
Native Win32 interface for Win NT & 2000


Track 1
Filename C:\Beatles For Sale (DESS 2006 Blue Box Stereo)\01 - No Reply.wav

Peak level 99.4 %
Track quality 100.0 %
Test CRC 54B19B9A
Copy CRC 54B19B9A
Copy OK

Track 2
Filename C:\Beatles For Sale (DESS 2006 Blue Box Stereo)\02 - I'm A Loser.wav

Peak level 99.4 %
Track quality 100.0 %
Test CRC 68D86773
Copy CRC 68D86773
Copy OK

Track 3
Filename C:\Beatles For Sale (DESS 2006 Blue Box Stereo)\03 - Baby's In Black.wav

Peak level 99.2 %
Track quality 100.0 %
Test CRC EB9AC3C1
Copy CRC EB9AC3C1
Copy OK

Track 4
Filename C:\Beatles For Sale (DESS 2006 Blue Box Stereo)\04 - Rock And Roll Music.wav

Peak level 94.2 %
Track quality 100.0 %
Test CRC C376FFAA
Copy CRC C376FFAA
Copy OK

Track 5
Filename C:\Beatles For Sale (DESS 2006 Blue Box Stereo)\05 - I'll Follow The Sun.wav

Peak level 85.0 %
Track quality 100.0 %
Test CRC 02D82321
Copy CRC 02D82321
Copy OK

Track 6
Filename C:\Beatles For Sale (DESS 2006 Blue Box Stereo)\06 - Mr. Moonlight.wav

Peak level 95.6 %
Track quality 100.0 %
Test CRC 5A203BA4
Copy CRC 5A203BA4
Copy OK

Track 7
Filename C:\Beatles For Sale (DESS 2006 Blue Box Stereo)\07 - Kansas City (Hey Hey Hey).wav

Peak level 99.9 %
Track quality 100.0 %
Test CRC 47085264
Copy CRC 47085264
Copy OK

Track 8
Filename C:\Beatles For Sale (DESS 2006 Blue Box Stereo)\08 - Eight Days A Week.wav

Peak level 99.4 %
Track quality 100.0 %
Test CRC 65D84534
Copy CRC 65D84534
Copy OK

Track 9
Filename C:\Beatles For Sale (DESS 2006 Blue Box Stereo)\09 - Words Of Love.wav

Peak level 99.7 %
Track quality 100.0 %
Test CRC D545CF74
Copy CRC D545CF74
Copy OK

Track 10
Filename C:\Beatles For Sale (DESS 2006 Blue Box Stereo)\10 - Honey Don't.wav

Peak level 96.5 %
Track quality 100.0 %
Test CRC 8040E29B
Copy CRC 8040E29B
Copy OK

Track 11
Filename C:\Beatles For Sale (DESS 2006 Blue Box Stereo)\11 - Every Little Thing.wav

Peak level 99.3 %
Track quality 100.0 %
Test CRC 4A6B21D6
Copy CRC 4A6B21D6
Copy OK

Track 12
Filename C:\Beatles For Sale (DESS 2006 Blue Box Stereo)\12 - I Don't Want To Spoil The Party.wav

Peak level 97.6 %
Track quality 100.0 %
Test CRC 1456DE69
Copy CRC 1456DE69
Copy OK

Track 13
Filename C:\Beatles For Sale (DESS 2006 Blue Box Stereo)\13 - What You're Doing.wav

Peak level 92.0 %
Track quality 100.0 %
Test CRC A880F4F1
Copy CRC A880F4F1
Copy OK

Track 14
Filename C:\Beatles For Sale (DESS 2006 Blue Box Stereo)\14 - Everybody's Trying To Be My Baby.wav

Peak level 98.9 %
Track quality 99.9 %
Test CRC 2784A227
Copy CRC 2784A227
Copy OK

No errors occured


End of status report


[CUETools log; Date: 12.01.2020 2:25:05; Version: 2.1.6]
[CTDB TOCID: uTyAFqqFqCPeU.beHwlDew.VGWM-] found.
Track | CTDB Status
1 | (5/5) Accurately ripped
2 | (5/5) Accurately ripped
3 | (5/5) Accurately ripped
4 | (5/5) Accurately ripped
5 | (5/5) Accurately ripped
6 | (5/5) Accurately ripped
7 | (5/5) Accurately ripped
8 | (5/5) Accurately ripped
9 | (5/5) Accurately ripped
10 | (5/5) Accurately ripped
11 | (2/5) Accurately ripped
12 | (5/5) Accurately ripped
13 | (5/5) Accurately ripped
14 | (5/5) Accurately ripped
[AccurateRip ID: 0011b3a1-00bdaed6-c608280e] found.
Track [ CRC | V2 ] Status
01 [528c9ea8|c670840a] (0+0/2) No match
02 [f4de36f3|4488d1da] (0+0/2) No match
03 [c15749d2|2c9c33e8] (0+0/2) No match
04 [91942836|6b0bac63] (0+0/2) No match
05 [538a3238|b4cfe3c6] (0+0/2) No match
06 [c4bcd13f|238796cb] (0+0/2) No match
07 [82c53e17|0f3ff907] (0+0/2) No match
08 [5e12f9f6|12cb3de2] (0+0/2) No match
09 [75b79603|80f1bf55] (0+0/2) No match
10 [302d799b|f8babe26] (0+0/2) No match
11 [25527a37|99237b5b] (0+0/2) No match
12 [8be40fd2|3fe704c3] (0+0/2) No match
13 [f88b66f9|1a3645f7] (0+0/2) No match
14 [5991408d|d4319b99] (0+0/2) No match
Offsetted by -18:
01 [689e29b0] (2/2) Accurately ripped
02 [a1281fad] (2/2) Accurately ripped
03 [fea2354f] (2/2) Accurately ripped
04 [bc0e1496] (2/2) Accurately ripped
05 [08e1d28a] (2/2) Accurately ripped
06 [a451a3be] (2/2) Accurately ripped
07 [22bf669d] (2/2) Accurately ripped
08 [27413b9b] (2/2) Accurately ripped
09 [6a9b7e21] (2/2) Accurately ripped
10 [d616168f] (2/2) Accurately ripped
11 [150c6ec3] (0/2) No match (V2 was not tested)
12 [abd5b7ea] (2/2) Accurately ripped
13 [3d8d6cbf] (2/2) Accurately ripped
14 [4ecfe0e1] (2/2) Accurately ripped

Track Peak [ CRC32 ] [W/O NULL] [ LOG ]
– 99,9 [CCD867D1] [1B4A684B]
01 99,4 [54B19B9A] [8772F183] CRC32
02 99,4 [68D86773] [CD4DA52E] CRC32
03 99,1 [EB9AC3C1] [E6483A52] CRC32
04 94,2 [C376FFAA] [4DFFAC24] CRC32
05 85,0 [02D82321] [831F2D31] CRC32
06 95,6 [5A203BA4] [83ADACE3] CRC32
07 99,9 [47085264] [2312A8E6] CRC32
08 99,4 [65D84534] [2395781D] CRC32
09 99,7 [D545CF74] [03C10964] CRC32
10 96,5 [8040E29B] [C8034487] CRC32
11 99,3 [4A6B21D6] [3DE5CC3D] CRC32
12 97,6 [1456DE69] [704B5ACC] CRC32
13 92,0 [A880F4F1] [85C254D4] CRC32
14 98,9 [2784A227] [8DAA1648] CRC32


The Beatles - Dr. Ebbett's Blue Box Series (2006)

Tracklist CD5. 1965 - Help! (PCS 3071):

1. Help! (2:24)
2. The Night Before (2:37)
3. You've Got to Hide Your Love Away (2:12)
4. I Need You (2:31)
5. Another Girl (2:09)
6. You're Going To Lose That Girl (2:21)
7. Ticket to Ride (3:12)
8. Act Naturally (2:33)
9. It's Only Love (1:59)
10. You Like Me Too Much (2:39)
11. Tell Me What You See (2:40)
12. I've Just Seen a Face (2:08)
13. Yesterday (2:09)
14. Dizzy Miss Lizzy (2:55)

EAC extraction logfile from 25. April 2006, 12:40 for CD
The Beatles / Help!

Used drive : LITE-ON DVDRW SOHW-1673S Adapter: 2 ID: 0
Read mode : Secure with NO C2, accurate stream, disable cache
Read offset correction : 12
Overread into Lead-In and Lead-Out : No

Used output format : Internal WAV Routines
44.100 Hz; 16 Bit; Stereo

Other options :
Fill up missing offset samples with silence : Yes
Delete leading and trailing silent blocks : No
Native Win32 interface for Win NT & 2000


Track 1
Filename C:\Help (DESS Blue Box Stereo)\01 - Help!.wav

Peak level 99.6 %
Track quality 100.0 %
Test CRC D26F776D
Copy CRC D26F776D
Copy OK

Track 2
Filename C:\Help (DESS Blue Box Stereo)\02 - The Night Before.wav

Peak level 88.9 %
Track quality 100.0 %
Test CRC CDCA789D
Copy CRC CDCA789D
Copy OK

Track 3
Filename C:\Help (DESS Blue Box Stereo)\03 - You've Got To Hide Your Love Away.wav

Peak level 100.0 %
Track quality 100.0 %
Test CRC 595C4852
Copy CRC 595C4852
Copy OK

Track 4
Filename C:\Help (DESS Blue Box Stereo)\04 - I Need You.wav

Peak level 99.7 %
Track quality 99.9 %
Test CRC C5CBA0A4
Copy CRC C5CBA0A4
Copy OK

Track 5
Filename C:\Help (DESS Blue Box Stereo)\05 - Another Girl.wav

Peak level 98.7 %
Track quality 99.9 %
Test CRC 3B69C5BF
Copy CRC 3B69C5BF
Copy OK

Track 6
Filename C:\Help (DESS Blue Box Stereo)\06 - You're Going To Lose That Girl.wav

Peak level 97.9 %
Track quality 100.0 %
Test CRC 510E2B9E
Copy CRC 510E2B9E
Copy OK

Track 7
Filename C:\Help (DESS Blue Box Stereo)\07 - Ticket To Ride.wav

Peak level 98.1 %
Track quality 100.0 %
Test CRC 0F0941D4
Copy CRC 0F0941D4
Copy OK

Track 8
Filename C:\Help (DESS Blue Box Stereo)\08 - Act Naturally.wav

Peak level 95.5 %
Track quality 100.0 %
Test CRC 9F2EE9E8
Copy CRC 9F2EE9E8
Copy OK

Track 9
Filename C:\Help (DESS Blue Box Stereo)\09 - It's Only Love.wav

Peak level 95.9 %
Track quality 100.0 %
Test CRC 122A5ABB
Copy CRC 122A5ABB
Copy OK

Track 10
Filename C:\Help (DESS Blue Box Stereo)\10 - You Like Me Too Much.wav

Peak level 96.0 %
Track quality 100.0 %
Test CRC 6047764E
Copy CRC 6047764E
Copy OK

Track 11
Filename C:\Help (DESS Blue Box Stereo)\11 - Tell Me What You See.wav

Peak level 89.6 %
Track quality 100.0 %
Test CRC 01130622
Copy CRC 01130622
Copy OK

Track 12
Filename C:\Help (DESS Blue Box Stereo)\12 - I've Just Seen A Face.wav

Peak level 99.9 %
Track quality 100.0 %
Test CRC BABCD0E1
Copy CRC BABCD0E1
Copy OK

Track 13
Filename C:\Help (DESS Blue Box Stereo)\13 - Yesterday.wav

Peak level 81.4 %
Track quality 100.0 %
Test CRC 313A9507
Copy CRC 313A9507
Copy OK

Track 14
Filename C:\Help (DESS Blue Box Stereo)\14 - Dizzy Miss Lizzie.wav

Peak level 94.7 %
Track quality 100.0 %
Test CRC C5938693
Copy CRC C5938693
Copy OK

No errors occured


End of status report


[CUETools log; Date: 12.01.2020 2:26:58; Version: 2.1.6]
[CTDB TOCID: qX9oER1W5bc6lUPnwP4yfOmHuXo-] found.
Track | CTDB Status
1 | (7/7) Accurately ripped
2 | (7/7) Accurately ripped
3 | (7/7) Accurately ripped
4 | (7/7) Accurately ripped
5 | (7/7) Accurately ripped
6 | (7/7) Accurately ripped
7 | (7/7) Accurately ripped
8 | (7/7) Accurately ripped
9 | (7/7) Accurately ripped
10 | (7/7) Accurately ripped
11 | (5/7) Accurately ripped
12 | (7/7) Accurately ripped
13 | (7/7) Accurately ripped
14 | (7/7) Accurately ripped
[AccurateRip ID: 0011bc55-00bd6cc0-b8081e0e] found.
Track [ CRC | V2 ] Status
01 [6bfe0927|a2ca806b] (0+0/2) No match
02 [2b06452b|c1a86f32] (0+0/2) No match
03 [40a95b23|75a9447a] (0+0/2) No match
04 [0a2885b4|362b31fa] (0+0/2) No match
05 [1c492f01|553e0f2c] (0+0/2) No match
06 [bc175341|6471357b] (0+0/2) No match
07 [e020d492|1ad24314] (0+0/2) No match
08 [c0a0debe|299b0b9d] (0+0/2) No match
09 [6f1ca214|528d6dd0] (0+0/2) No match
10 [94c8859f|84b2ae26] (0+0/2) No match
11 [6b14a315|e86dedbc] (0+0/2) No match
12 [6e6fe10e|fea82bfd] (0+0/2) No match
13 [1c56d86e|74a5a3de] (0+0/2) No match
14 [56043456|5fa68d6e] (0+0/2) No match
Offsetted by -18:
01 [1089e0cd] (2/2) Accurately ripped
02 [1bec7dc7] (2/2) Accurately ripped
03 [c548268d] (2/2) Accurately ripped
04 [f8452ef6] (2/2) Accurately ripped
05 [209abd27] (2/2) Accurately ripped
06 [6f533dcb] (2/2) Accurately ripped
07 [3bb1c5a0] (2/2) Accurately ripped
08 [332a1662] (2/2) Accurately ripped
09 [bb99441c] (2/2) Accurately ripped
10 [a5710907] (2/2) Accurately ripped
11 [727bebbb] (2/2) Accurately ripped
12 [b6262d16] (2/2) Accurately ripped
13 [16b0956c] (2/2) Accurately ripped
14 [7f8489c2] (2/2) Accurately ripped

Track Peak [ CRC32 ] [W/O NULL] [ LOG ]
– 100,0 [7E6E5854] [09FFA0E8]
01 99,6 [D26F776D] [E9904177] CRC32
02 88,9 [CDCA789D] [CBA930A6] CRC32
03 100,0 [595C4852] [AE607C6B] CRC32
04 99,7 [C5CBA0A4] [30481685] CRC32
05 98,7 [3B69C5BF] [50700E25] CRC32
06 97,9 [510E2B9E] [D22E5252] CRC32
07 98,1 [0F0941D4] [4DA396CC] CRC32
08 95,5 [9F2EE9E8] [B545531C] CRC32
09 95,9 [122A5ABB] [CDB59020] CRC32
10 96,0 [6047764E] [3E2A181D] CRC32
11 89,6 [01130622] [4C95920F] CRC32
12 99,9 [BABCD0E1] [90F4A963] CRC32
13 81,4 [313A9507] [5D7BDB46] CRC32
14 94,7 [C5938693] [C2574708] CRC32


The Beatles - Dr. Ebbett's Blue Box Series (2006)

Tracklist CD6. 1965 - Rubber Soul (PCS 3075):

1. Drive My Car (2:32)
2. Norwegian Wood (This Bird Has Flown) (2:08)
3. You Won't See Me (3:24)
4. Nowhere Man (2:46)
5. Think For Yourself (2:21)
6. The Word (2:47)
7. Michelle (2:48)
8. What Goes On (2:50)
9. Girl (2:34)
10. I'm Looking Through You (2:29)
11. In My Life (2:30)
12. Wait (2:17)
13. If I Needed Someone (2:25)
14. Run For Your Life (2:21)

EAC extraction logfile from 25. April 2006, 17:36 for CD
The Beatles / Rubber Soul (UK Stereo) (Ebbett PCS 3075)

Used drive : LITE-ON DVDRW SOHW-1673S Adapter: 2 ID: 0
Read mode : Secure with NO C2, accurate stream, disable cache
Read offset correction : 12
Overread into Lead-In and Lead-Out : No

Used output format : Internal WAV Routines
44.100 Hz; 16 Bit; Stereo

Other options :
Fill up missing offset samples with silence : Yes
Delete leading and trailing silent blocks : No
Native Win32 interface for Win NT & 2000


Track 1
Filename C:\Rubber Soul (DESS Blue Box Stereo)\01 - Drive My Car.wav

Peak level 99.7 %
Track quality 100.0 %
Test CRC 1030D470
Copy CRC 1030D470
Copy OK

Track 2
Filename C:\Rubber Soul (DESS Blue Box Stereo)\02 - Norwegian Wood (This Bird Has Flown).wav

Peak level 96.1 %
Track quality 100.0 %
Test CRC 2F8F18F6
Copy CRC 2F8F18F6
Copy OK

Track 3
Filename C:\Rubber Soul (DESS Blue Box Stereo)\03 - You Won't See Me.wav

Peak level 98.3 %
Track quality 100.0 %
Test CRC 6A315B2B
Copy CRC 6A315B2B
Copy OK

Track 4
Filename C:\Rubber Soul (DESS Blue Box Stereo)\04 - Nowhere Man.wav

Peak level 93.7 %
Track quality 100.0 %
Test CRC 47D87D2B
Copy CRC 47D87D2B
Copy OK

Track 5
Filename C:\Rubber Soul (DESS Blue Box Stereo)\05 - Think For Yourself.wav

Peak level 100.0 %
Track quality 100.0 %
Test CRC 69FA0AF3
Copy CRC 69FA0AF3
Copy OK

Track 6
Filename C:\Rubber Soul (DESS Blue Box Stereo)\06 - The Word.wav

Peak level 96.1 %
Track quality 100.0 %
Test CRC 2A809607
Copy CRC 2A809607
Copy OK

Track 7
Filename C:\Rubber Soul (DESS Blue Box Stereo)\07 - Michelle.wav

Peak level 77.5 %
Track quality 100.0 %
Test CRC FAE19D1A
Copy CRC FAE19D1A
Copy OK

Track 8
Filename C:\Rubber Soul (DESS Blue Box Stereo)\08 - What Goes On.wav

Peak level 92.6 %
Track quality 100.0 %
Test CRC 1EAAE40E
Copy CRC 1EAAE40E
Copy OK

Track 9
Filename C:\Rubber Soul (DESS Blue Box Stereo)\09 - Girl.wav

Peak level 91.8 %
Track quality 100.0 %
Test CRC 38DD0804
Copy CRC 38DD0804
Copy OK

Track 10
Filename C:\Rubber Soul (DESS Blue Box Stereo)\10 - I'm Looking Through You.wav

Peak level 97.6 %
Track quality 100.0 %
Test CRC 7603783F
Copy CRC 7603783F
Copy OK

Track 11
Filename C:\Rubber Soul (DESS Blue Box Stereo)\11 - In My Life.wav

Peak level 97.5 %
Track quality 100.0 %
Test CRC AEB94288
Copy CRC AEB94288
Copy OK

Track 12
Filename C:\Rubber Soul (DESS Blue Box Stereo)\12 - Wait.wav

Peak level 100.0 %
Track quality 100.0 %
Test CRC 178C71EA
Copy CRC 178C71EA
Copy OK

Track 13
Filename C:\Rubber Soul (DESS Blue Box Stereo)\13 - If I Needed Someone.wav

Peak level 94.3 %
Track quality 100.0 %
Test CRC 3CA82264
Copy CRC 3CA82264
Copy OK

Track 14
Filename C:\Rubber Soul (DESS Blue Box Stereo)\14 - Run For Your Life.wav

Peak level 94.1 %
Track quality 100.0 %
Test CRC 4D3DD138
Copy CRC 4D3DD138
Copy OK

No errors occured


End of status report


[CUETools log; Date: 12.01.2020 2:28:36; Version: 2.1.6]
[CTDB TOCID: kFLcG2tSGEURC63JFh_QkeT.lL8-] found.
Track | CTDB Status
1 | (3/3) Accurately ripped
2 | (3/3) Accurately ripped
3 | (3/3) Accurately ripped
4 | (3/3) Accurately ripped
5 | (3/3) Accurately ripped
6 | (3/3) Accurately ripped
7 | (3/3) Accurately ripped
8 | (3/3) Accurately ripped
9 | (3/3) Accurately ripped
10 | (3/3) Accurately ripped
11 | (3/3) Accurately ripped
12 | (3/3) Accurately ripped
13 | (3/3) Accurately ripped
14 | (3/3) Accurately ripped
[AccurateRip ID: 00131647-00cb47bb-bf08820e] found.
Track [ CRC | V2 ] Status
01 [6a5529fb|24d4116d] (0+0/2) No match
02 [35b2e0a6|1a6e3433] (0+0/2) No match
03 [a56ebf42|8217a594] (0+0/2) No match
04 [7bef9e5a|7ea513aa] (0+0/2) No match
05 [ab2e9641|11adb81d] (0+0/2) No match
06 [461965b8|cd29435e] (0+0/2) No match
07 [501a8c91|c171c5b0] (0+0/2) No match
08 [e7e87aa0|4b7df394] (0+0/2) No match
09 [306c50f7|5d28e6e5] (0+0/2) No match
10 [8ca7178e|f1aa37cb] (0+0/2) No match
11 [002f9219|ff167702] (0+0/2) No match
12 [9a72e6b8|92ee111e] (0+0/2) No match
13 [e62da365|b621880c] (0+0/2) No match
14 [a09057c6|447b092b] (0+0/2) No match
Offsetted by -18:
01 [d6605f49] (2/2) Accurately ripped
02 [4fd0801c] (2/2) Accurately ripped
03 [12bca778] (2/2) Accurately ripped
04 [f85afe2f] (2/2) Accurately ripped
05 [e8b91f18] (2/2) Accurately ripped
06 [324afab4] (2/2) Accurately ripped
07 [2032df0f] (2/2) Accurately ripped
08 [afc39692] (2/2) Accurately ripped
09 [6a97cf95] (2/2) Accurately ripped
10 [cc4f4fe4] (2/2) Accurately ripped
11 [ecd247e6] (2/2) Accurately ripped
12 [806e7923] (2/2) Accurately ripped
13 [0cd77dbf] (2/2) Accurately ripped
14 [a600248e] (2/2) Accurately ripped

Track Peak [ CRC32 ] [W/O NULL] [ LOG ]
– 100,0 [66F777E6] [E78FFD41]
01 99,7 [1030D470] [B2034366] CRC32
02 96,1 [2F8F18F6] [4F3D6FA4] CRC32
03 98,3 [6A315B2B] [BF14CCC2] CRC32
04 93,7 [47D87D2B] [D3047F65] CRC32
05 100,0 [69FA0AF3] [54E2DA26] CRC32
06 96,1 [2A809607] [538370E4] CRC32
07 77,5 [FAE19D1A] [944FA99A] CRC32
08 92,6 [1EAAE40E] [FEFB2B5B] CRC32
09 91,8 [38DD0804] [B2C25132] CRC32
10 97,6 [7603783F] [8C613BEF] CRC32
11 97,5 [AEB94288] [F3FE250A] CRC32
12 99,9 [178C71EA] [03002AFC] CRC32
13 94,3 [3CA82264] [58A15392] CRC32
14 94,1 [4D3DD138] [09EA9E60] CRC32


The Beatles - Dr. Ebbett's Blue Box Series (2006)

Tracklist CD7. 1966 - Revolver (PCS 7009):

1. Taxman (2:41)
2. Eleanor Rigby (2:08)
3. I'm Only Sleeping (3:03)
4. Love You To (3:02)
5. Here, There and Everywhere (2:26)
6. Yellow Submarine (2:41)
7. She Said She Said (2:38)
8. Good Day Sunshine (2:11)
9. And Your Bird Can Sing (2:02)
10. For No One (2:01)
11. Doctor Robert (2:17)
12. I Want To Tell You (2:30)
13. Got To Get You Into My Life (2:30)
14. Tomorrow Never Knows (3:00)

EAC extraction logfile from 7. May 2006, 21:39 for CD
The Beatles / Revolver (UK Stereo) (Ebbett PCS 7009)

Used drive : LITE-ON DVDRW SOHW-1673S Adapter: 2 ID: 0
Read mode : Secure with NO C2, accurate stream, disable cache
Read offset correction : 12
Overread into Lead-In and Lead-Out : No

Used output format : Internal WAV Routines
44.100 Hz; 16 Bit; Stereo

Other options :
Fill up missing offset samples with silence : Yes
Delete leading and trailing silent blocks : No
Native Win32 interface for Win NT & 2000


Track 1
Filename C:\Revolver\01 - Taxman.wav

Pre-gap length 0:00:02.00

Peak level 97.9 %
Track quality 100.0 %
Test CRC 9403C2B8
Copy CRC 9403C2B8
Copy OK

Track 2
Filename C:\Revolver\02 - Eleanor Rigby.wav

Peak level 93.8 %
Track quality 100.0 %
Test CRC 8EA0991F
Copy CRC 8EA0991F
Copy OK

Track 3
Filename C:\Revolver\03 - I'm Only Sleeping.wav

Peak level 98.2 %
Track quality 100.0 %
Test CRC 49B52EF6
Copy CRC 49B52EF6
Copy OK

Track 4
Filename C:\Revolver\04 - Love You To.wav

Peak level 99.5 %
Track quality 100.0 %
Test CRC 38B76E9A
Copy CRC 38B76E9A
Copy OK

Track 5
Filename C:\Revolver\05 - Here, There and Everywhere.wav

Peak level 89.6 %
Track quality 100.0 %
Test CRC BE4CDE93
Copy CRC BE4CDE93
Copy OK

Track 6
Filename C:\Revolver\06 - Yellow Submarine.wav

Peak level 99.5 %
Track quality 100.0 %
Test CRC AE126D0E
Copy CRC AE126D0E
Copy OK

Track 7
Filename C:\Revolver\07 - She Said She Said.wav

Peak level 95.7 %
Track quality 100.0 %
Test CRC 8570A2CF
Copy CRC 8570A2CF
Copy OK

Track 8
Filename C:\Revolver\08 - Good Day Sunshine.wav

Peak level 100.0 %
Track quality 100.0 %
Test CRC 269352CE
Copy CRC 269352CE
Copy OK

Track 9
Filename C:\Revolver\09 - And Your Bird Can Sing.wav

Peak level 92.6 %
Track quality 100.0 %
Test CRC 055B3184
Copy CRC 055B3184
Copy OK

Track 10
Filename C:\Revolver\10 - For No One.wav

Peak level 79.1 %
Track quality 99.9 %
Test CRC CCC96C66
Copy CRC CCC96C66
Copy OK

Track 11
Filename C:\Revolver\11 - Doctor Robert.wav

Peak level 97.3 %
Track quality 100.0 %
Test CRC F4D1A79B
Copy CRC F4D1A79B
Copy OK

Track 12
Filename C:\Revolver\12 - I Want To Tell You.wav

Peak level 86.6 %
Track quality 100.0 %
Test CRC 23CD102D
Copy CRC 23CD102D
Copy OK

Track 13
Filename C:\Revolver\13 - Got To Get You Into My Life.wav

Peak level 88.8 %
Track quality 100.0 %
Test CRC 2D4F0C0D
Copy CRC 2D4F0C0D
Copy OK

Track 14
Filename C:\Revolver\14 - Tomorrow Never Knows.wav

Peak level 100.0 %
Track quality 99.9 %
Test CRC 809F5B11
Copy CRC 809F5B11
Copy OK

No errors occured


End of status report


[CUETools log; Date: 12.01.2020 2:30:37; Version: 2.1.6]
[CTDB TOCID: fjUfKYYm9ZKNGnXwNShoqwSP.sI-] found.
Track | CTDB Status
1 | (4/4) Accurately ripped
2 | (3/4) Accurately ripped, or (1/4) differs in 1779 samples @00:58:13-00:58:16
3 | (4/4) Accurately ripped
4 | (4/4) Accurately ripped
5 | (4/4) Accurately ripped
6 | (4/4) Accurately ripped
7 | (4/4) Accurately ripped
8 | (4/4) Accurately ripped
9 | (4/4) Accurately ripped
10 | (4/4) Accurately ripped
11 | (4/4) Accurately ripped
12 | (4/4) Accurately ripped
13 | (4/4) Accurately ripped
14 | (4/4) Accurately ripped
[AccurateRip ID: 001261dc-00c297ad-cf08440e] found.
Track [ CRC | V2 ] Status
01 [404f2db2|cfcf6b82] (0+0/2) No match
02 [e94bcd61|fbc6651b] (0+0/2) No match
03 [226b8e49|5c12acaa] (0+0/2) No match
04 [1ea35e68|4f46cf33] (0+0/2) No match
05 [ac49268a|1ccbfffa] (0+0/2) No match
06 [a94b42fd|360ffac9] (0+0/2) No match
07 [b650d2d8|85992e82] (0+0/2) No match
08 [278e39cc|82c4edb5] (0+0/2) No match
09 [ba5929e4|4f6d312e] (0+0/2) No match
10 [90fbf09d|ce4a2710] (0+0/2) No match
11 [d4bff9d3|b88f6d1a] (0+0/2) No match
12 [920201cd|5d8ecb6c] (0+0/2) No match
13 [e1b53dd6|50378e6d] (0+0/2) No match
14 [bd0ab06e|ffcf9e21] (0+0/2) No match
Offsetted by 30:
01 [07345615] (2/2) Accurately ripped
02 [769f661b] (0/2) No match (V2 was not tested)
03 [3e3afae0] (2/2) Accurately ripped
04 [8371b4db] (2/2) Accurately ripped
05 [358b72c9] (2/2) Accurately ripped
06 [8cd97999] (2/2) Accurately ripped
07 [1e784a45] (2/2) Accurately ripped
08 [b997e0fe] (2/2) Accurately ripped
09 [a7f183b5] (2/2) Accurately ripped
10 [7100afce] (2/2) Accurately ripped
11 [614caeb4] (2/2) Accurately ripped
12 [6833b115] (2/2) Accurately ripped
13 [31cfa838] (2/2) Accurately ripped
14 [c50f572e] (2/2) Accurately ripped

Track Peak [ CRC32 ] [W/O NULL] [ LOG ]
– 100,0 [0A3A93C8] [CA1564F6]
01 97,9 [C6E96AEE] [2B220690] CRC32 : offset 48
02 93,8 [775DE9DE] [DFE5DE9D] CRC32 : offset 48
03 98,2 [405741F9] [B8E58DA3] CRC32 : offset 48
04 99,5 [63E36955] [1BD8798E] CRC32 : offset 48
05 89,6 [BAEBCAF3] [5CFF601F] CRC32 : offset 48
06 99,5 [8ACBAA25] [00A4A092] CRC32 : offset 48
07 95,7 [FE9E8371] [F9FBF6A7] CRC32 : offset 48
08 100,0 [37E226DC] [DD900248] CRC32 : offset 48
09 92,6 [017E9DC4] [C1035336] CRC32 : offset 48
10 79,1 [5E350ABC] [87DE2CBA] CRC32 : offset 48
11 97,3 [1F2DB0E6] [442A7DE7] CRC32 : offset 48
12 86,6 [66697B29] [A59C8853] CRC32 : offset 48
13 88,8 [371634DF] [C6A70CF2] CRC32 : offset 48
14 100,0 [56D83508] [16321B65] CRC32 : offset 48


The Beatles - Dr. Ebbett's Blue Box Series (2006)

Tracklist CD8. 1967 - Sgt. Pepper's Lonely Hearts Club Band (PCS 7027):

1. Sgt. Pepper's Lonely Hearts Club Band (2:01)
2. With a Little Help from My Friends (2:43)
3. Lucy in the Sky With Diamonds (3:28)
4. Getting Better (2:47)
5. Fixing a Hole (2:36)
6. She's Leaving Home (3:34)
7. Being for the Benefit of Mr. Kite! (2:37)
8. Within You Without You (5:04)
9. When I'm Sixty-Four (2:37)
10. Lovely Rita (2:42)
11. Good Morning Good Morning (2:41)
12. Sgt. Pepper's Lonely Hearts Club Band (Reprise) (1:20)
13. A Day in the Life (5:20)

EAC extraction logfile from 25. April 2006, 14:47 for CD
The Beatles / Sgt. Pepper's Lonely Hearts Club Band (UK Stereo) (Ebbett PCS 7027)

Used drive : LITE-ON DVDRW SOHW-1673S Adapter: 2 ID: 0
Read mode : Secure with NO C2, accurate stream, disable cache
Read offset correction : 12
Overread into Lead-In and Lead-Out : No

Used output format : Internal WAV Routines
44.100 Hz; 16 Bit; Stereo

Other options :
Fill up missing offset samples with silence : Yes
Delete leading and trailing silent blocks : No
Native Win32 interface for Win NT & 2000


Track 1
Filename C:\Sgt. Pepper's Lonely Hearts Club Band (DESS Blue Box Stereo)\01 - Sgt. Peppers Lonely Hearts Club Band.wav

Peak level 97.4 %
Track quality 100.0 %
Test CRC DBEC9800
Copy CRC DBEC9800
Copy OK

Track 2
Filename C:\Sgt. Pepper's Lonely Hearts Club Band (DESS Blue Box Stereo)\02 - A Little Help From My Friends.wav

Peak level 97.4 %
Track quality 100.0 %
Test CRC E316D878
Copy CRC E316D878
Copy OK

Track 3
Filename C:\Sgt. Pepper's Lonely Hearts Club Band (DESS Blue Box Stereo)\03 - Lucy In The Sky With Diamonds.wav

Peak level 100.0 %
Track quality 100.0 %
Test CRC 4B5FAC33
Copy CRC 4B5FAC33
Copy OK

Track 4
Filename C:\Sgt. Pepper's Lonely Hearts Club Band (DESS Blue Box Stereo)\04 - Getting Better.wav

Peak level 98.6 %
Track quality 100.0 %
Test CRC AD959D7A
Copy CRC AD959D7A
Copy OK

Track 5
Filename C:\Sgt. Pepper's Lonely Hearts Club Band (DESS Blue Box Stereo)\05 - Fixing A Hole.wav

Peak level 97.6 %
Track quality 100.0 %
Test CRC D75374BE
Copy CRC D75374BE
Copy OK

Track 6
Filename C:\Sgt. Pepper's Lonely Hearts Club Band (DESS Blue Box Stereo)\06 - She's Leaving Home.wav

Peak level 74.1 %
Track quality 100.0 %
Test CRC DFC02CB6
Copy CRC DFC02CB6
Copy OK

Track 7
Filename C:\Sgt. Pepper's Lonely Hearts Club Band (DESS Blue Box Stereo)\07 - Being For The Benefit Of Mr Kite.wav

Peak level 98.2 %
Track quality 100.0 %
Test CRC E64CB558
Copy CRC E64CB558
Copy OK

Track 8
Filename C:\Sgt. Pepper's Lonely Hearts Club Band (DESS Blue Box Stereo)\08 - Within You Without You.wav

Peak level 95.6 %
Track quality 99.9 %
Test CRC 46A245B3
Copy CRC 46A245B3
Copy OK

Track 9
Filename C:\Sgt. Pepper's Lonely Hearts Club Band (DESS Blue Box Stereo)\09 - When I'm Sixty-Four.wav

Peak level 94.0 %
Track quality 100.0 %
Test CRC 9FAF186A
Copy CRC 9FAF186A
Copy OK

Track 10
Filename C:\Sgt. Pepper's Lonely Hearts Club Band (DESS Blue Box Stereo)\10 - Lovely Rita.wav

Peak level 95.7 %
Track quality 100.0 %
Test CRC 6A1F1499
Copy CRC 6A1F1499
Copy OK

Track 11
Filename C:\Sgt. Pepper's Lonely Hearts Club Band (DESS Blue Box Stereo)\11 - Good Morning, Good Morning.wav

Peak level 98.8 %
Track quality 100.0 %
Test CRC 218ED87F
Copy CRC 218ED87F
Copy OK

Track 12
Filename C:\Sgt. Pepper's Lonely Hearts Club Band (DESS Blue Box Stereo)\12 - Sgt Peppers Lonely Hearts Club Band (Reprise).wav

Peak level 95.7 %
Track quality 100.0 %
Test CRC 2DB6CDE7
Copy CRC 2DB6CDE7
Copy OK

Track 13
Filename C:\Sgt. Pepper's Lonely Hearts Club Band (DESS Blue Box Stereo)\13 - A Day In The Life.wav

Peak level 100.0 %
Track quality 100.0 %
Test CRC EC53794A
Copy CRC EC53794A
Copy OK

No errors occured


End of status report


[CUETools log; Date: 12.01.2020 2:32:55; Version: 2.1.6]
[CTDB TOCID: uXFf7CT2a7u8XKFD8sQfza4wSZ4-] found.
Track | CTDB Status
1 | (10/10) Accurately ripped
2 | (10/10) Accurately ripped
3 | (10/10) Accurately ripped
4 | (10/10) Accurately ripped
5 | (10/10) Accurately ripped
6 | ( 9/10) Accurately ripped
7 | ( 9/10) Accurately ripped
8 | ( 9/10) Accurately ripped
9 | ( 9/10) Accurately ripped
10 | ( 9/10) Accurately ripped
11 | ( 9/10) Accurately ripped
12 | ( 9/10) Accurately ripped
13 | ( 4/10) Accurately ripped
[AccurateRip ID: 001245f0-00b8fdc4-b809480d] found.
Track [ CRC | V2 ] Status
01 [4cb2b4f3|90e4012b] (0+0/2) No match
02 [aae5f074|6b4093ff] (0+0/2) No match
03 [7e6ec5dd|3eaee2e6] (0+0/2) No match
04 [f42186b3|3d7cdb65] (0+0/2) No match
05 [eb3555b4|2fa7d4ef] (0+0/2) No match
06 [effa3711|90107967] (0+0/2) No match
07 [7b164438|08063d52] (0+0/2) No match
08 [31251bf1|dd69e460] (0+0/2) No match
09 [0b8b8965|d34ae5ee] (0+0/2) No match
10 [5d053b42|dedfba86] (0+0/2) No match
11 [957cbfd3|bbde0be9] (0+0/2) No match
12 [fb473f4f|53a610a9] (0+0/2) No match
13 [9ead2fca|bbc9e880] (0+0/2) No match
Offsetted by -234:
01 [ab69d72a] (0/2) No match (V2 was not tested)
02 [720d58ff] (0/2) No match (V2 was not tested)
03 [d0155b59] (0/2) No match (V2 was not tested)
04 [7e179eb4] (0/2) No match (V2 was not tested)
05 [574bba18] (0/2) No match (V2 was not tested)
06 [670cc393] (0/2) No match (V2 was not tested)
07 [91fb5fe9] (0/2) No match (V2 was not tested)
08 [3a206f17] (0/2) No match (V2 was not tested)
09 [f7c00eca] (0/2) No match (V2 was not tested)
10 [4598b5d0] (0/2) No match (V2 was not tested)
11 [f17b3c44] (0/2) No match (V2 was not tested)
12 [1c53370c] (0/2) No match (V2 was not tested)
13 [df3f8c10] (0/2) No match (V2 was not tested)
Offsetted by -18:
01 [32e7e9c1] (2/2) Accurately ripped
02 [ffc14150] (2/2) Accurately ripped
03 [3d349849] (2/2) Accurately ripped
04 [1819c34b] (2/2) Accurately ripped
05 [d9e33313] (2/2) Accurately ripped
06 [741c878c] (2/2) Accurately ripped
07 [c7e4c574] (2/2) Accurately ripped
08 [6e637817] (2/2) Accurately ripped
09 [fad1d6b3] (2/2) Accurately ripped
10 [d0caaad1] (2/2) Accurately ripped
11 [4ed8ccc3] (2/2) Accurately ripped
12 [10ac7fe5] (2/2) Accurately ripped
13 [4c8cdb5f] (0/2) No match (V2 was not tested)
Offsetted by -12:
01 [5f031ba6] (0/2) No match (V2 was not tested)
02 [9973f2ae] (0/2) No match (V2 was not tested)
03 [5c435449] (0/2) No match (V2 was not tested)
04 [63151d7b] (0/2) No match (V2 was not tested)
05 [60fc5b16] (0/2) No match (V2 was not tested)
06 [10e2caf3] (0/2) No match (V2 was not tested)
07 [b00444a3] (0/2) No match (V2 was not tested)
08 [58013631] (0/2) No match (V2 was not tested)
09 [5a1b5076] (0/2) No match (V2 was not tested)
10 [8660b872] (0/2) No match (V2 was not tested)
11 [9bbda8fa] (0/2) No match (V2 was not tested)
12 [3944654f] (0/2) No match (V2 was not tested)
13 [4f61b290] (0/2) No match (V2 was not tested)

Track Peak [ CRC32 ] [W/O NULL] [ LOG ]
– 100,0 [4F4435D4] [D5265FD4]
01 97,4 [DBEC9800] [9C2FBAAB] CRC32
02 97,4 [E316D878] [C47BC430] CRC32
03 100,0 [4B5FAC33] [C6B6710A] CRC32
04 98,6 [AD959D7A] [87687210] CRC32
05 97,6 [D75374BE] [3830C82E] CRC32
06 74,1 [DFC02CB6] [0E5CE364] CRC32
07 98,2 [E64CB558] [9922C1B3] CRC32
08 95,6 [46A245B3] [A3622A3C] CRC32
09 94,0 [9FAF186A] [3954FC39] CRC32
10 95,7 [6A1F1499] [09F9C7B1] CRC32
11 98,8 [218ED87F] [29176BCE] CRC32
12 95,7 [2DB6CDE7] [05251C42] CRC32
13 99,9 [EC53794A] [D6DB5BF5] CRC32


The Beatles - Dr. Ebbett's Blue Box Series (2006)

Tracklist CD9-10. 1968 - The Beatles (PSC 7067-7/8):

Cd1:
1. Back in the U.S.S.R. (2:43)
2. Dear Prudence (3:54)
3. Glass Onion (2:18)
4. Ob-La-Di, Ob-La-Da (3:09)
5. Wild Honey Pie (0:53)
6. The Continuing Story of Bungalow Bill (3:13)
7. While My Guitar Gently Weeps (4:46)
8. Happiness is a Warm Gun (2:43)
9. Martha My Dear (2:27)
10. I'm So Tired (2:03)
11. Blackbird (2:17)
12. Piggies (2:04)
13. Rocky Raccoon (3:33)
14. Don't Pass Me By (3:50)
15. Why Don't We Do it in the Road (1:41)
16. I Will (1:46)
17. Julia (2:54)

EAC extraction logfile from 23. December 2006, 0:28 for CD
The Beatles / White Album (Disc 1)

Used drive : QSI DVD-ROM SDR-081 Adapter: 1 ID: 0
Read mode : Secure with NO C2, accurate stream, disable cache
Read offset correction : 564
Overread into Lead-In and Lead-Out : No

Used output format : Internal WAV Routines
44.100 Hz; 16 Bit; Stereo

Other options :
Fill up missing offset samples with silence : Yes
Delete leading and trailing silent blocks : No
Native Win32 interface for Win NT & 2000


Track 1
Filename C:\Program Files\uTorrent\Downloads\The Beatles - White Album (1968) [flac] {DESS Blue Box}\Disc 1\01 - Back In The U.S.S.R..wav

Pre-gap length 0:00:02.00

Peak level 100.0 %
Track quality 100.0 %
Test CRC 619A99E7
Copy CRC 619A99E7
Copy OK

Track 2
Filename C:\Program Files\uTorrent\Downloads\The Beatles - White Album (1968) [flac] {DESS Blue Box}\Disc 1\02 - Dear Prudence.wav

Peak level 99.1 %
Track quality 100.0 %
Test CRC 904F6D47
Copy CRC 904F6D47
Copy OK

Track 3
Filename C:\Program Files\uTorrent\Downloads\The Beatles - White Album (1968) [flac] {DESS Blue Box}\Disc 1\03 - Glass Onion.wav

Peak level 95.7 %
Track quality 100.0 %
Test CRC 0EAE9DC0
Copy CRC 0EAE9DC0
Copy OK

Track 4
Filename C:\Program Files\uTorrent\Downloads\The Beatles - White Album (1968) [flac] {DESS Blue Box}\Disc 1\04 - Ob-La-Di, Ob-La-Da.wav

Peak level 91.3 %
Track quality 100.0 %
Test CRC 5DCA85B9
Copy CRC 5DCA85B9
Copy OK

Track 5
Filename C:\Program Files\uTorrent\Downloads\The Beatles - White Album (1968) [flac] {DESS Blue Box}\Disc 1\05 - Wild Honey Pie.wav

Peak level 96.4 %
Track quality 100.0 %
Test CRC 8AAA3AC9
Copy CRC 8AAA3AC9
Copy OK

Track 6
Filename C:\Program Files\uTorrent\Downloads\The Beatles - White Album (1968) [flac] {DESS Blue Box}\Disc 1\06 - The Continuing Story Of Bungalow Bill.wav

Peak level 99.2 %
Track quality 100.0 %
Test CRC 2D7943D9
Copy CRC 2D7943D9
Copy OK

Track 7
Filename C:\Program Files\uTorrent\Downloads\The Beatles - White Album (1968) [flac] {DESS Blue Box}\Disc 1\07 - While My Guitar Gently Weeps.wav

Peak level 100.0 %
Track quality 100.0 %
Test CRC F241A17A
Copy CRC F241A17A
Copy OK

Track 8
Filename C:\Program Files\uTorrent\Downloads\The Beatles - White Album (1968) [flac] {DESS Blue Box}\Disc 1\08 - Happiness Is A Warm Gun.wav

Peak level 97.9 %
Track quality 100.0 %
Test CRC 11B52E1E
Copy CRC 11B52E1E
Copy OK

Track 9
Filename C:\Program Files\uTorrent\Downloads\The Beatles - White Album (1968) [flac] {DESS Blue Box}\Disc 1\09 - Martha My Dear.wav

Peak level 97.8 %
Track quality 100.0 %
Test CRC D16B02D4
Copy CRC D16B02D4
Copy OK

Track 10
Filename C:\Program Files\uTorrent\Downloads\The Beatles - White Album (1968) [flac] {DESS Blue Box}\Disc 1\10 - I'm So Tired.wav

Peak level 97.6 %
Track quality 99.9 %
Test CRC 3AAEC6A5
Copy CRC 3AAEC6A5
Copy OK

Track 11
Filename C:\Program Files\uTorrent\Downloads\The Beatles - White Album (1968) [flac] {DESS Blue Box}\Disc 1\11 - Blackbird.wav

Peak level 84.6 %
Track quality 100.0 %
Test CRC 54A42177
Copy CRC 54A42177
Copy OK

Track 12
Filename C:\Program Files\uTorrent\Downloads\The Beatles - White Album (1968) [flac] {DESS Blue Box}\Disc 1\12 - Piggies.wav

Peak level 95.4 %
Track quality 100.0 %
Test CRC 6EEC779B
Copy CRC 6EEC779B
Copy OK

Track 13
Filename C:\Program Files\uTorrent\Downloads\The Beatles - White Album (1968) [flac] {DESS Blue Box}\Disc 1\13 - Rocky Raccoon.wav

Peak level 97.0 %
Track quality 100.0 %
Test CRC 801BC358
Copy CRC 801BC358
Copy OK

Track 14
Filename C:\Program Files\uTorrent\Downloads\The Beatles - White Album (1968) [flac] {DESS Blue Box}\Disc 1\14 - Don't Pass Me By.wav

Peak level 93.3 %
Track quality 100.0 %
Test CRC 40616483
Copy CRC 40616483
Copy OK

Track 15
Filename C:\Program Files\uTorrent\Downloads\The Beatles - White Album (1968) [flac] {DESS Blue Box}\Disc 1\15 - Why Don't We Do It In The Road.wav

Peak level 94.6 %
Track quality 100.0 %
Test CRC 9AFA0252
Copy CRC 9AFA0252
Copy OK

Track 16
Filename C:\Program Files\uTorrent\Downloads\The Beatles - White Album (1968) [flac] {DESS Blue Box}\Disc 1\16 - I Will.wav

Peak level 83.3 %
Track quality 100.0 %
Test CRC B6779816
Copy CRC B6779816
Copy OK

Track 17
Filename C:\Program Files\uTorrent\Downloads\The Beatles - White Album (1968) [flac] {DESS Blue Box}\Disc 1\17 - Julia.wav

Peak level 81.8 %
Track quality 100.0 %
Test CRC 671BD232
Copy CRC 671BD232
Copy OK

No errors occured


End of status report


[CUETools log; Date: 12.01.2020 2:35:18; Version: 2.1.6]
[CTDB TOCID: funAZ.vEf_TmCUztm563Pwq.Vfw-] found.
Track | CTDB Status
1 | (7/7) Accurately ripped
2 | (7/7) Accurately ripped
3 | (7/7) Accurately ripped
4 | (7/7) Accurately ripped
5 | (7/7) Accurately ripped
6 | (7/7) Accurately ripped
7 | (7/7) Accurately ripped
8 | (7/7) Accurately ripped
9 | (7/7) Accurately ripped
10 | (7/7) Accurately ripped
11 | (7/7) Accurately ripped
12 | (7/7) Accurately ripped
13 | (7/7) Accurately ripped
14 | (7/7) Accurately ripped
15 | (7/7) Accurately ripped
16 | (7/7) Accurately ripped
17 | (7/7) Accurately ripped
[AccurateRip ID: 001d7e0e-01730985-d90adf11] found.
Track [ CRC | V2 ] Status
01 [3298dcee|63126c42] (3+0/5) Accurately ripped
02 [7e983ac3|47cf678a] (3+0/5) Accurately ripped
03 [26fed603|96107c9a] (3+0/5) Accurately ripped
04 [c07d4e6d|fe338b43] (3+0/5) Accurately ripped
05 [f8a8a767|ba0af69f] (3+0/5) Accurately ripped
06 [f9f552fd|fde8a561] (3+0/5) Accurately ripped
07 [d68beadd|2a9f953d] (3+0/5) Accurately ripped
08 [3703ea74|b628d211] (3+0/5) Accurately ripped
09 [146f2898|d595f91f] (3+0/5) Accurately ripped
10 [5c99011f|981f1294] (3+0/5) Accurately ripped
11 [ecc93ff7|d91c95d9] (3+0/5) Accurately ripped
12 [3ea973cd|c2e89f03] (3+0/5) Accurately ripped
13 [a772e56e|ca9ddcdc] (3+0/5) Accurately ripped
14 [ad1c7af3|129763f1] (3+0/5) Accurately ripped
15 [c2249d0d|e2c81edc] (3+0/5) Accurately ripped
16 [cd5e86df|15e9dada] (3+0/5) Accurately ripped
17 [fc3df8e1|16ba9c39] (3+0/5) Accurately ripped
Offsetted by 6:
01 [eae684d3] (2/5) Accurately ripped
02 [a03219f5] (2/5) Accurately ripped
03 [8f32b4ca] (2/5) Accurately ripped
04 [976e6a77] (2/5) Accurately ripped
05 [abed8dab] (2/5) Accurately ripped
06 [b9475626] (2/5) Accurately ripped
07 [e4be1cf0] (2/5) Accurately ripped
08 [6f839d45] (2/5) Accurately ripped
09 [e94ebf46] (2/5) Accurately ripped
10 [2ce85a5d] (2/5) Accurately ripped
11 [20263ca1] (2/5) Accurately ripped
12 [07f5bb19] (2/5) Accurately ripped
13 [8b96594f] (2/5) Accurately ripped
14 [79a83f4a] (2/5) Accurately ripped
15 [c560d646] (2/5) Accurately ripped
16 [4f54125a] (2/5) Accurately ripped
17 [f5d8c04a] (2/5) Accurately ripped

Track Peak [ CRC32 ] [W/O NULL] [ LOG ]
– 100,0 [728EF2C6] [C700B893]
01 99,9 [619A99E7] [2DF28322] CRC32
02 99,1 [904F6D47] [1F2152B7] CRC32
03 95,7 [0EAE9DC0] [D1E379D3] CRC32
04 91,3 [5DCA85B9] [CA85DDA8] CRC32
05 96,4 [8AAA3AC9] [B970B32D] CRC32
06 99,2 [2D7943D9] [D3A0B866] CRC32
07 100,0 [F241A17A] [96179A99] CRC32
08 97,9 [11B52E1E] [3964F16B] CRC32
09 97,8 [D16B02D4] [F0490A4A] CRC32
10 97,6 [3AAEC6A5] [044F1CB0] CRC32
11 84,6 [54A42177] [7A0E8F4C] CRC32
12 95,4 [6EEC779B] [CB226180] CRC32
13 97,0 [801BC358] [9641AFC8] CRC32
14 93,3 [40616483] [232A2655] CRC32
15 94,6 [9AFA0252] [EF16A472] CRC32
16 83,3 [B6779816] [D0623078] CRC32
17 81,8 [671BD232] [3EF70357] CRC32



Сd2:
1. Birthday (2:41)
2. Yer Blues (3:58)
3. Mother Nature's Son (2:47)
4. Everybody's Got Something to Hide Except Me and My Monkey (2:23)
5. Sexy Sadie (3:14)
6. Helter Skelter (4:27)
7. Long, Long, Long (3:04)
8. Revolution 1 (4:14)
9. Honey Pie (2:39)
10. Savoy Truffle (2:53)
11. Cry Baby Cry (3:00)
12. Revolution 9 (8:20)
13. Good Night (3:12)

EAC extraction logfile from 23. December 2006, 1:32 for CD
The Beatles / White Album (Disc 2)

Used drive : QSI DVD-ROM SDR-081 Adapter: 1 ID: 0
Read mode : Secure with NO C2, accurate stream, disable cache
Read offset correction : 564
Overread into Lead-In and Lead-Out : No

Used output format : Internal WAV Routines
44.100 Hz; 16 Bit; Stereo

Other options :
Fill up missing offset samples with silence : Yes
Delete leading and trailing silent blocks : No
Native Win32 interface for Win NT & 2000


Track 1
Filename C:\Program Files\uTorrent\Downloads\The Beatles - White Album (1968) [flac] {DESS Blue Box}\Disc 2\01 - Birthday.wav

Pre-gap length 0:00:02.00

Peak level 100.0 %
Track quality 99.9 %
Test CRC 8DC5C114
Copy CRC 8DC5C114
Copy OK

Track 2
Filename C:\Program Files\uTorrent\Downloads\The Beatles - White Album (1968) [flac] {DESS Blue Box}\Disc 2\02 - Yer Blues.wav

Peak level 99.9 %
Track quality 100.0 %
Test CRC 7BB9FE91
Copy CRC 7BB9FE91
Copy OK

Track 3
Filename C:\Program Files\uTorrent\Downloads\The Beatles - White Album (1968) [flac] {DESS Blue Box}\Disc 2\03 - Mother Nature's Son.wav

Peak level 91.6 %
Track quality 100.0 %
Test CRC C7C79090
Copy CRC C7C79090
Copy OK

Track 4
Filename C:\Program Files\uTorrent\Downloads\The Beatles - White Album (1968) [flac] {DESS Blue Box}\Disc 2\04 - Everybody's Got Something To Hide Except Me And My Monkey.wav

Peak level 100.0 %
Track quality 99.9 %
Test CRC 3259E7F4
Copy CRC 3259E7F4
Copy OK

Track 5
Filename C:\Program Files\uTorrent\Downloads\The Beatles - White Album (1968) [flac] {DESS Blue Box}\Disc 2\05 - Sexy Sadie.wav

Peak level 99.9 %
Track quality 100.0 %
Test CRC FEEAFE1B
Copy CRC FEEAFE1B
Copy OK

Track 6
Filename C:\Program Files\uTorrent\Downloads\The Beatles - White Album (1968) [flac] {DESS Blue Box}\Disc 2\06 - Helter Skelter.wav

Peak level 99.9 %
Track quality 100.0 %
Test CRC BF1E2950
Copy CRC BF1E2950
Copy OK

Track 7
Filename C:\Program Files\uTorrent\Downloads\The Beatles - White Album (1968) [flac] {DESS Blue Box}\Disc 2\07 - Long, Long, Long.wav

Peak level 99.9 %
Track quality 100.0 %
Test CRC 33C13228
Copy CRC 33C13228
Copy OK

Track 8
Filename C:\Program Files\uTorrent\Downloads\The Beatles - White Album (1968) [flac] {DESS Blue Box}\Disc 2\08 - Revolution 1.wav

Peak level 99.9 %
Track quality 100.0 %
Test CRC F6D1999C
Copy CRC F6D1999C
Copy OK

Track 9
Filename C:\Program Files\uTorrent\Downloads\The Beatles - White Album (1968) [flac] {DESS Blue Box}\Disc 2\09 - Honey Pie.wav

Peak level 92.4 %
Track quality 100.0 %
Test CRC 0E9CF37E
Copy CRC 0E9CF37E
Copy OK

Track 10
Filename C:\Program Files\uTorrent\Downloads\The Beatles - White Album (1968) [flac] {DESS Blue Box}\Disc 2\10 - Savoy Truffle.wav

Peak level 99.9 %
Track quality 100.0 %
Test CRC 82DF1496
Copy CRC 82DF1496
Copy OK

Track 11
Filename C:\Program Files\uTorrent\Downloads\The Beatles - White Album (1968) [flac] {DESS Blue Box}\Disc 2\11 - Cry Baby Cry.wav

Peak level 99.9 %
Track quality 100.0 %
Test CRC 6BA897A7
Copy CRC 6BA897A7
Copy OK

Track 12
Filename C:\Program Files\uTorrent\Downloads\The Beatles - White Album (1968) [flac] {DESS Blue Box}\Disc 2\12 - Revolution 9.wav

Peak level 99.9 %
Track quality 100.0 %
Test CRC 48C633AA
Copy CRC 48C633AA
Copy OK

Track 13
Filename C:\Program Files\uTorrent\Downloads\The Beatles - White Album (1968) [flac] {DESS Blue Box}\Disc 2\13 - Good Night.wav

Peak level 87.8 %
Track quality 100.0 %
Test CRC 8255CEB2
Copy CRC 8255CEB2
Copy OK

No errors occured


End of status report


[CUETools log; Date: 12.01.2020 2:37:43; Version: 2.1.6]
[CTDB TOCID: yQQu_FWMuDxCkQxZxeX2O7OLkYc-] found.
Track | CTDB Status
1 | (7/7) Accurately ripped
2 | (7/7) Accurately ripped
3 | (7/7) Accurately ripped
4 | (7/7) Accurately ripped
5 | (7/7) Accurately ripped
6 | (7/7) Accurately ripped
7 | (7/7) Accurately ripped
8 | (7/7) Accurately ripped
9 | (7/7) Accurately ripped
10 | (7/7) Accurately ripped
11 | (7/7) Accurately ripped
12 | (7/7) Accurately ripped
13 | (7/7) Accurately ripped
[AccurateRip ID: 0014caa8-00d32334-aa0b000d] found.
Track [ CRC | V2 ] Status
01 [ddce738d|ec61e192] (3+0/5) Accurately ripped
02 [5e9c8727|5743baca] (3+0/5) Accurately ripped
03 [6f02b76e|281d8960] (3+0/5) Accurately ripped
04 [3c74a886|f16e4ad6] (3+0/5) Accurately ripped
05 [f8a6d9e5|e09b328e] (3+0/5) Accurately ripped
06 [f083d3ac|6b01a431] (3+0/5) Accurately ripped
07 [5d96c233|c45444ef] (3+0/5) Accurately ripped
08 [0579c84f|3ea6e2df] (3+0/5) Accurately ripped
09 [3073c181|4d084b85] (3+0/5) Accurately ripped
10 [cee3146e|518e4c51] (3+0/5) Accurately ripped
11 [e6ab3495|8bbee745] (3+0/5) Accurately ripped
12 [17ac38ad|ae135f41] (3+0/5) Accurately ripped
13 [f281f948|02bd723e] (3+0/5) Accurately ripped
Offsetted by 6:
01 [19304f4e] (2/5) Accurately ripped
02 [aa36156e] (2/5) Accurately ripped
03 [5f2f2d97] (2/5) Accurately ripped
04 [c414162d] (2/5) Accurately ripped
05 [9d103cd6] (2/5) Accurately ripped
06 [86ffab77] (2/5) Accurately ripped
07 [46b5b6cb] (2/5) Accurately ripped
08 [8db13e48] (2/5) Accurately ripped
09 [5eddc342] (2/5) Accurately ripped
10 [c8781c6c] (2/5) Accurately ripped
11 [9020a93c] (2/5) Accurately ripped
12 [fa994865] (2/5) Accurately ripped
13 [994606b1] (2/5) Accurately ripped

Track Peak [ CRC32 ] [W/O NULL] [ LOG ]
– 100,0 [AFD912BB] [0DCB9EF4]
01 99,9 [8DC5C114] [95FD54AB] CRC32
02 99,9 [7BB9FE91] [A8E13434] CRC32
03 91,6 [C7C79090] [D2DF633F] CRC32
04 100,0 [3259E7F4] [617470A7] CRC32
05 99,9 [FEEAFE1B] [2AAE165A] CRC32
06 99,9 [BF1E2950] [97B0394D] CRC32
07 99,9 [33C13228] [FDE88060] CRC32
08 99,9 [F6D1999C] [143B0B76] CRC32
09 92,4 [0E9CF37E] [2ED8D75D] CRC32
10 99,9 [82DF1496] [B81FEBF5] CRC32
11 99,9 [6BA897A7] [ED2F9590] CRC32
12 99,9 [48C633AA] [187CF756] CRC32
13 87,8 [8255CEB2] [B37B7B25] CRC32


The Beatles - Dr. Ebbett's Blue Box Series (2006)

Tracklist CD11. 1968 - Yellow Submarine (PCS 7070):

1. Yellow Submarine (2:42)
2. Only a Northern Song (3:27)
3. All Together Now (2:12)
4. Hey Bulldog (3:12)
5. It's All Too Much (6:27)
6. All You Need Is Love (3:49)
7. Pepperland (2:20)
8. Sea of Time (2:59)
9. Sea of Holes (2:17)
10. Sea of Monsters (3:39)
11. March of the Meanies (2:21)
12. Pepperland Laid Waste (2:14)
13. Yellow Submarine in Pepperland (2:11)

EAC extraction logfile from 23. December 2006, 8:25 for CD
The Beatles / Yellow Submarine

Used drive : QSI DVD-ROM SDR-081 Adapter: 1 ID: 0
Read mode : Secure with NO C2, accurate stream, disable cache
Read offset correction : 564
Overread into Lead-In and Lead-Out : No

Used output format : Internal WAV Routines
44.100 Hz; 16 Bit; Stereo

Other options :
Fill up missing offset samples with silence : Yes
Delete leading and trailing silent blocks : No
Native Win32 interface for Win NT & 2000


Track 1
Filename C:\Program Files\uTorrent\Downloads\The Beatles - Yellow Submarine (1969) [flac] {DESS Blue Box}\01 - Yellow Submarine.wav

Pre-gap length 0:00:02.00

Peak level 100.0 %
Track quality 100.0 %
Test CRC AFD3F7EF
Copy CRC AFD3F7EF
Copy OK

Track 2
Filename C:\Program Files\uTorrent\Downloads\The Beatles - Yellow Submarine (1969) [flac] {DESS Blue Box}\02 - Only a Northern Song.wav

Peak level 94.3 %
Track quality 100.0 %
Test CRC C3351D9D
Copy CRC C3351D9D
Copy OK

Track 3
Filename C:\Program Files\uTorrent\Downloads\The Beatles - Yellow Submarine (1969) [flac] {DESS Blue Box}\03 - All Together Now.wav

Peak level 95.5 %
Track quality 100.0 %
Test CRC 5310A03F
Copy CRC 5310A03F
Copy OK

Track 4
Filename C:\Program Files\uTorrent\Downloads\The Beatles - Yellow Submarine (1969) [flac] {DESS Blue Box}\04 - Hey Bulldog.wav

Peak level 100.0 %
Track quality 100.0 %
Test CRC 44CE8ECA
Copy CRC 44CE8ECA
Copy OK

Track 5
Filename C:\Program Files\uTorrent\Downloads\The Beatles - Yellow Submarine (1969) [flac] {DESS Blue Box}\05 - It's All Too Much.wav

Peak level 98.1 %
Track quality 100.0 %
Test CRC 99DC7945
Copy CRC 99DC7945
Copy OK

Track 6
Filename C:\Program Files\uTorrent\Downloads\The Beatles - Yellow Submarine (1969) [flac] {DESS Blue Box}\06 - All You need Is Love.wav

Peak level 98.5 %
Track quality 99.9 %
Test CRC 2D9B4886
Copy CRC 2D9B4886
Copy OK

Track 7
Filename C:\Program Files\uTorrent\Downloads\The Beatles - Yellow Submarine (1969) [flac] {DESS Blue Box}\07 - Pepperland.wav

Peak level 99.3 %
Track quality 100.0 %
Test CRC AB2FA02F
Copy CRC AB2FA02F
Copy OK

Track 8
Filename C:\Program Files\uTorrent\Downloads\The Beatles - Yellow Submarine (1969) [flac] {DESS Blue Box}\08 - Sea Of Time.wav

Peak level 99.0 %
Track quality 100.0 %
Test CRC 26F5A0C8
Copy CRC 26F5A0C8
Copy OK

Track 9
Filename C:\Program Files\uTorrent\Downloads\The Beatles - Yellow Submarine (1969) [flac] {DESS Blue Box}\09 - Sea Of Holes.wav

Peak level 99.3 %
Track quality 100.0 %
Test CRC 560D707C
Copy CRC 560D707C
Copy OK

Track 10
Filename C:\Program Files\uTorrent\Downloads\The Beatles - Yellow Submarine (1969) [flac] {DESS Blue Box}\10 - Sea Of Monsters.wav

Peak level 100.0 %
Track quality 100.0 %
Test CRC 8536212F
Copy CRC 8536212F
Copy OK

Track 11
Filename C:\Program Files\uTorrent\Downloads\The Beatles - Yellow Submarine (1969) [flac] {DESS Blue Box}\11 - March Of The Meanies.wav

Peak level 99.5 %
Track quality 100.0 %
Test CRC 3589E5E6
Copy CRC 3589E5E6
Copy OK

Track 12
Filename C:\Program Files\uTorrent\Downloads\The Beatles - Yellow Submarine (1969) [flac] {DESS Blue Box}\12 - Pepperland Laid Waste.wav

Peak level 99.7 %
Track quality 100.0 %
Test CRC F8C08E04
Copy CRC F8C08E04
Copy OK

Track 13
Filename C:\Program Files\uTorrent\Downloads\The Beatles - Yellow Submarine (1969) [flac] {DESS Blue Box}\13 - Yellow Submarine In Pepperland.wav

Peak level 99.5 %
Track quality 100.0 %
Test CRC 469198CA
Copy CRC 469198CA
Copy OK

No errors occured


End of status report


[CUETools log; Date: 12.01.2020 2:40:13; Version: 2.1.6]
[CTDB TOCID: u0EP2bjX5dhjViwuCjaOOHcAfaM-] found.
Track | CTDB Status
1 | (4/4) Accurately ripped
2 | (4/4) Accurately ripped
3 | (4/4) Accurately ripped
4 | (3/4) Accurately ripped
5 | (4/4) Accurately ripped
6 | (4/4) Accurately ripped
7 | (4/4) Accurately ripped
8 | (4/4) Accurately ripped
9 | (4/4) Accurately ripped
10 | (4/4) Accurately ripped
11 | (4/4) Accurately ripped
12 | (4/4) Accurately ripped
13 | (4/4) Accurately ripped
[AccurateRip ID: 001456f3-00cac5a4-ae095e0d] found.
Track [ CRC | V2 ] Status
01 [8e5a44a0|3c2dfbf8] (2+0/2) Accurately ripped
02 [19d462c5|ab74ee19] (2+0/2) Accurately ripped
03 [de9daee3|739064c4] (2+0/2) Accurately ripped
04 [3a561782|0b802230] (2+0/2) Accurately ripped
05 [64d80fbd|a121cf26] (2+0/2) Accurately ripped
06 [d094b5c8|4a0c02a2] (2+0/2) Accurately ripped
07 [78e03e03|1b5cb516] (2+0/2) Accurately ripped
08 [86261014|ebf6bf1d] (2+0/2) Accurately ripped
09 [77b592a9|7cd80680] (2+0/2) Accurately ripped
10 [99b0e687|8e8dd0ef] (2+0/2) Accurately ripped
11 [99285b0f|a3f51298] (2+0/2) Accurately ripped
12 [53524da0|4139f09e] (2+0/2) Accurately ripped
13 [42e1d277|4e3f484f] (2+0/2) Accurately ripped

Track Peak [ CRC32 ] [W/O NULL] [ LOG ]
– 100,0 [8A1525B3] [F6980576]
01 100,0 [AFD3F7EF] [1619790A] CRC32
02 94,3 [C3351D9D] [4326BFB1] CRC32
03 95,5 [5310A03F] [8D6BF7DB] CRC32
04 100,0 [44CE8ECA] [F90549AF] CRC32
05 98,1 [99DC7945] [5C6D324D] CRC32
06 98,5 [2D9B4886] [C562F2E1] CRC32
07 99,3 [AB2FA02F] [5129AA9F] CRC32
08 99,0 [26F5A0C8] [4D9F6FC4] CRC32
09 99,3 [560D707C] [1AEB8F8F] CRC32
10 100,0 [8536212F] [28D71A8E] CRC32
11 99,5 [3589E5E6] [E4A9DDD9] CRC32
12 99,7 [F8C08E04] [9D8BE79E] CRC32
13 99,5 [469198CA] [FB45A5C7] CRC32


The Beatles - Dr. Ebbett's Blue Box Series (2006)

Tracklist CD12. 1969 - Abbey Road (PCS 7088):

1. Come Together (4:21)
2. Something (3:02)
3. Maxwell's Silver Hammer (3:27)
4. Oh! Darling (3:26)
5. Octopus's Garden (2:50)
6. I Want You (She's So Heavy) (7:44)
7. Here Comes the Sun (3:04)
8. Because (2:44)
9. You Never Give Me Your Money (4:02)
10. Sun King (2:26)
11. Mean Mr. Mustard (1:06)
12. Polythene Pam (1:12)
13. She Came in Through the Bathroom Window (1:58)
14. Golden Slumbers (1:31)
15. Carry that Weight (1:36)
16. The End (2:22)
17. Her Majesty (0:25)

EAC extraction logfile from 23. December 2006, 18:43 for CD
The Beatles / Abbey Road

Used drive : QSI DVD-ROM SDR-081 Adapter: 1 ID: 0
Read mode : Secure with NO C2, accurate stream, disable cache
Read offset correction : 564
Overread into Lead-In and Lead-Out : No

Used output format : Internal WAV Routines
44.100 Hz; 16 Bit; Stereo

Other options :
Fill up missing offset samples with silence : Yes
Delete leading and trailing silent blocks : No
Native Win32 interface for Win NT & 2000


Track 1
Filename C:\Program Files\uTorrent\Downloads\The Beatles - Abbey Road (1969) [flac] {DESS Blue Box}\01 - Come Together.wav

Pre-gap length 0:00:02.00

Peak level 99.9 %
Track quality 99.9 %
Test CRC 2F89664F
Copy CRC 2F89664F
Copy OK

Track 2
Filename C:\Program Files\uTorrent\Downloads\The Beatles - Abbey Road (1969) [flac] {DESS Blue Box}\02 - Something.wav

Peak level 99.9 %
Track quality 100.0 %
Test CRC B694C709
Copy CRC B694C709
Copy OK

Track 3
Filename C:\Program Files\uTorrent\Downloads\The Beatles - Abbey Road (1969) [flac] {DESS Blue Box}\03 - Maxwell's Silver Hammer.wav

Peak level 99.9 %
Track quality 99.9 %
Test CRC B4B84679
Copy CRC B4B84679
Copy OK

Track 4
Filename C:\Program Files\uTorrent\Downloads\The Beatles - Abbey Road (1969) [flac] {DESS Blue Box}\04 - Oh! Darling.wav

Peak level 99.9 %
Track quality 100.0 %
Test CRC B5F7ED64
Copy CRC B5F7ED64
Copy OK

Track 5
Filename C:\Program Files\uTorrent\Downloads\The Beatles - Abbey Road (1969) [flac] {DESS Blue Box}\05 - Octopus's Garden.wav

Peak level 96.9 %
Track quality 100.0 %
Test CRC 5DD084DD
Copy CRC 5DD084DD
Copy OK

Track 6
Filename C:\Program Files\uTorrent\Downloads\The Beatles - Abbey Road (1969) [flac] {DESS Blue Box}\06 - I Want You (She's So Heavy).wav

Peak level 100.0 %
Track quality 100.0 %
Test CRC 623BDF78
Copy CRC 623BDF78
Copy OK

Track 7
Filename C:\Program Files\uTorrent\Downloads\The Beatles - Abbey Road (1969) [flac] {DESS Blue Box}\07 - Here Comes The Sun.wav

Peak level 99.9 %
Track quality 99.9 %
Test CRC 5DF9B47B
Copy CRC 5DF9B47B
Copy OK

Track 8
Filename C:\Program Files\uTorrent\Downloads\The Beatles - Abbey Road (1969) [flac] {DESS Blue Box}\08 - Because.wav

Peak level 78.8 %
Track quality 100.0 %
Test CRC 0FA716A0
Copy CRC 0FA716A0
Copy OK

Track 9
Filename C:\Program Files\uTorrent\Downloads\The Beatles - Abbey Road (1969) [flac] {DESS Blue Box}\09 - You Never Give Me Your Money.wav

Peak level 99.9 %
Track quality 99.9 %
Test CRC 7AB127F9
Copy CRC 7AB127F9
Copy OK

Track 10
Filename C:\Program Files\uTorrent\Downloads\The Beatles - Abbey Road (1969) [flac] {DESS Blue Box}\10 - Sun King.wav

Peak level 74.9 %
Track quality 100.0 %
Test CRC 57631F3D
Copy CRC 57631F3D
Copy OK

Track 11
Filename C:\Program Files\uTorrent\Downloads\The Beatles - Abbey Road (1969) [flac] {DESS Blue Box}\11 - Mean Mr. Mustard.wav

Peak level 99.9 %
Track quality 100.0 %
Test CRC DD4B17A2
Copy CRC DD4B17A2
Copy OK

Track 12
Filename C:\Program Files\uTorrent\Downloads\The Beatles - Abbey Road (1969) [flac] {DESS Blue Box}\12 - Polythene Pam.wav

Peak level 99.9 %
Track quality 100.0 %
Test CRC 65455A72
Copy CRC 65455A72
Copy OK

Track 13
Filename C:\Program Files\uTorrent\Downloads\The Beatles - Abbey Road (1969) [flac] {DESS Blue Box}\13 - She Came In Through The Bathroom Window.wav

Peak level 99.9 %
Track quality 100.0 %
Test CRC 96DCCF95
Copy CRC 96DCCF95
Copy OK

Track 14
Filename C:\Program Files\uTorrent\Downloads\The Beatles - Abbey Road (1969) [flac] {DESS Blue Box}\14 - Golden Slumbers.wav

Peak level 92.5 %
Track quality 100.0 %
Test CRC A49E60FA
Copy CRC A49E60FA
Copy OK

Track 15
Filename C:\Program Files\uTorrent\Downloads\The Beatles - Abbey Road (1969) [flac] {DESS Blue Box}\15 - Carry That Weight.wav

Peak level 99.9 %
Track quality 100.0 %
Test CRC 2BB4D73A
Copy CRC 2BB4D73A
Copy OK

Track 16
Filename C:\Program Files\uTorrent\Downloads\The Beatles - Abbey Road (1969) [flac] {DESS Blue Box}\16 - The End.wav

Peak level 99.9 %
Track quality 99.9 %
Test CRC 6C258480
Copy CRC 6C258480
Copy OK

Track 17
Filename C:\Program Files\uTorrent\Downloads\The Beatles - Abbey Road (1969) [flac] {DESS Blue Box}\17 - Her Majesty.wav

Peak level 76.7 %
Track quality 99.5 %
Test CRC AA5579EA
Copy CRC AA5579EA
Copy OK

No errors occured


End of status report


[CUETools log; Date: 12.01.2020 2:42:26; Version: 2.1.6]
[CTDB TOCID: 5yOeBs5tt_yvzAojuVPyRlxmqwg-] found.
Track | CTDB Status
1 | (7/7) Accurately ripped
2 | (7/7) Accurately ripped
3 | (7/7) Accurately ripped
4 | (7/7) Accurately ripped
5 | (7/7) Accurately ripped
6 | (7/7) Accurately ripped
7 | (7/7) Accurately ripped
8 | (7/7) Accurately ripped
9 | (7/7) Accurately ripped
10 | (7/7) Accurately ripped
11 | (7/7) Accurately ripped
12 | (7/7) Accurately ripped
13 | (7/7) Accurately ripped
14 | (7/7) Accurately ripped
15 | (7/7) Accurately ripped
16 | (7/7) Accurately ripped
17 | (7/7) Accurately ripped
[AccurateRip ID: 002314bf-01accaa3-f30b1c11] found.
Track [ CRC | V2 ] Status
01 [358379ab|64b3e03e] (3+0/3) Accurately ripped
02 [b2c83844|86255c09] (3+0/3) Accurately ripped
03 [7d056b89|62689de4] (3+0/3) Accurately ripped
04 [d2df56e5|b5e2f42c] (3+0/3) Accurately ripped
05 [0ecb3343|0e402f38] (3+0/3) Accurately ripped
06 [971863c4|43ca3c6d] (3+0/3) Accurately ripped
07 [a307e25c|8a700bc2] (3+0/3) Accurately ripped
08 [8845fdf1|4d4f3240] (3+0/3) Accurately ripped
09 [009f2570|02534e3e] (3+0/3) Accurately ripped
10 [f2a42c92|5d7f19b8] (3+0/3) Accurately ripped
11 [da51ceda|d792fb4c] (3+0/3) Accurately ripped
12 [82775183|a186e7fc] (3+0/3) Accurately ripped
13 [5aa7d79f|dd76aa1e] (3+0/3) Accurately ripped
14 [5c3a56cc|ed73e7e7] (3+0/3) Accurately ripped
15 [b5892085|0c90b92c] (3+0/3) Accurately ripped
16 [e8997d24|a734f419] (3+0/3) Accurately ripped
17 [d87d5abf|f0c7cfb6] (3+0/3) Accurately ripped

Track Peak [ CRC32 ] [W/O NULL] [ LOG ]
– 100,0 [C32E6A57] [9AF3E04D]
01 99,9 [2F89664F] [389313C3] CRC32
02 99,9 [B694C709] [69680654] CRC32
03 99,9 [B4B84679] [F1F6D4F2] CRC32
04 99,9 [B5F7ED64] [22430E41] CRC32
05 96,9 [5DD084DD] [3C446016] CRC32
06 100,0 [623BDF78] [74DA9F3A] CRC32
07 99,9 [5DF9B47B] [08552810] CRC32
08 78,8 [0FA716A0] [47F1B275] CRC32
09 99,9 [7AB127F9] [1CD15A9E] CRC32
10 74,9 [57631F3D] [88AFF7F0] CRC32
11 99,9 [DD4B17A2] [6A835862] CRC32
12 99,9 [65455A72] [6BD3D562] CRC32
13 99,9 [96DCCF95] [306FAFFB] CRC32
14 92,5 [A49E60FA] [C31B7CC3] CRC32
15 99,9 [2BB4D73A] [94C50422] CRC32
16 99,9 [6C258480] [1C8481A2] CRC32
17 76,7 [AA5579EA] [85CF9036] CRC32


The Beatles - Dr. Ebbett's Blue Box Series (2006)

Tracklist CD13. 1970 - Let It Be (PCS 7096):

1. Two of Us (3:37)
2. Dig a Pony (3:55)
3. Across the Universe (3:49)
4. I Me Mine (2:24)
5. Dig It (0:49)
6. Let It Be (4:01)
7. Maggie Mae (0:40)
8. I've Got a Feeling (3:39)
9. One After 909 (2:54)
10. The Long and Winding Road (3:37)
11. For You Blue (2:34)
12. Get Back (3:11)

EAC extraction logfile from 23. December 2006, 19:58 for CD
The Beatles / Let It Be

Used drive : QSI DVD-ROM SDR-081 Adapter: 1 ID: 0
Read mode : Secure with NO C2, accurate stream, disable cache
Read offset correction : 564
Overread into Lead-In and Lead-Out : No

Used output format : Internal WAV Routines
44.100 Hz; 16 Bit; Stereo

Other options :
Fill up missing offset samples with silence : Yes
Delete leading and trailing silent blocks : No
Native Win32 interface for Win NT & 2000


Track 1
Filename C:\Program Files\uTorrent\Downloads\The Beatles - Let It Be (1970) [flac] {DESS Blue Box}\01 - Two Of Us.wav

Pre-gap length 0:00:02.00

Peak level 99.9 %
Track quality 100.0 %
Test CRC B46C2D67
Copy CRC B46C2D67
Copy OK

Track 2
Filename C:\Program Files\uTorrent\Downloads\The Beatles - Let It Be (1970) [flac] {DESS Blue Box}\02 - Dig A Pony.wav

Peak level 99.9 %
Track quality 99.9 %
Test CRC 61AD9046
Copy CRC 61AD9046
Copy OK

Track 3
Filename C:\Program Files\uTorrent\Downloads\The Beatles - Let It Be (1970) [flac] {DESS Blue Box}\03 - Across The Universe.wav

Peak level 99.7 %
Track quality 100.0 %
Test CRC F2864BA6
Copy CRC F2864BA6
Copy OK

Track 4
Filename C:\Program Files\uTorrent\Downloads\The Beatles - Let It Be (1970) [flac] {DESS Blue Box}\04 - I Me Mine.wav

Peak level 99.9 %
Track quality 100.0 %
Test CRC 925A1AB9
Copy CRC 925A1AB9
Copy OK

Track 5
Filename C:\Program Files\uTorrent\Downloads\The Beatles - Let It Be (1970) [flac] {DESS Blue Box}\05 - Dig It.wav

Peak level 99.9 %
Track quality 100.0 %
Test CRC 1E2FC3C3
Copy CRC 1E2FC3C3
Copy OK

Track 6
Filename C:\Program Files\uTorrent\Downloads\The Beatles - Let It Be (1970) [flac] {DESS Blue Box}\06 - Let It Be.wav

Peak level 99.9 %
Track quality 99.9 %
Test CRC 2A83A2AD
Copy CRC 2A83A2AD
Copy OK

Track 7
Filename C:\Program Files\uTorrent\Downloads\The Beatles - Let It Be (1970) [flac] {DESS Blue Box}\07 - Maggie Mae.wav

Peak level 99.9 %
Track quality 99.7 %
Test CRC B07F4DFE
Copy CRC B07F4DFE
Copy OK

Track 8
Filename C:\Program Files\uTorrent\Downloads\The Beatles - Let It Be (1970) [flac] {DESS Blue Box}\08 - I've Got A Feeling.wav

Peak level 95.8 %
Track quality 99.9 %
Test CRC F35AF191
Copy CRC F35AF191
Copy OK

Track 9
Filename C:\Program Files\uTorrent\Downloads\The Beatles - Let It Be (1970) [flac] {DESS Blue Box}\09 - One After 909.wav

Peak level 99.9 %
Track quality 100.0 %
Test CRC 3FEC06D9
Copy CRC 3FEC06D9
Copy OK

Track 10
Filename C:\Program Files\uTorrent\Downloads\The Beatles - Let It Be (1970) [flac] {DESS Blue Box}\10 - The Long And Winding Road.wav

Peak level 99.1 %
Track quality 100.0 %
Test CRC 2EA24C9C
Copy CRC 2EA24C9C
Copy OK

Track 11
Filename C:\Program Files\uTorrent\Downloads\The Beatles - Let It Be (1970) [flac] {DESS Blue Box}\11 - For You Blue.wav

Peak level 99.9 %
Track quality 100.0 %
Test CRC 860B6005
Copy CRC 860B6005
Copy OK

Track 12
Filename C:\Program Files\uTorrent\Downloads\The Beatles - Let It Be (1970) [flac] {DESS Blue Box}\12 - Get Back.wav

Peak level 100.0 %
Track quality 100.0 %
Test CRC E2362833
Copy CRC E2362833
Copy OK

No errors occured


End of status report


[CUETools log; Date: 12.01.2020 2:46:00; Version: 2.1.6]
[CTDB TOCID: T2hi1Z.KCmIUbGsOWS1ea75OmJo-] found.
Track | CTDB Status
1 | (5/5) Accurately ripped
2 | (5/5) Accurately ripped
3 | (5/5) Accurately ripped
4 | (5/5) Accurately ripped
5 | (5/5) Accurately ripped
6 | (5/5) Accurately ripped
7 | (5/5) Accurately ripped
8 | (5/5) Accurately ripped
9 | (5/5) Accurately ripped
10 | (5/5) Accurately ripped
11 | (5/5) Accurately ripped
12 | (5/5) Accurately ripped
[AccurateRip ID: 00101b51-0093a066-a908430c] found.
Track [ CRC | V2 ] Status
01 [79c4bcae|5b0612e1] (2+0/6) Accurately ripped
02 [c89fad27|98777b51] (2+0/6) Accurately ripped
03 [55581fdb|23fe03ee] (2+0/6) Accurately ripped
04 [a95a7f1d|657ec288] (2+0/6) Accurately ripped
05 [0e4610e5|42922bd8] (2+0/6) Accurately ripped
06 [c408099d|49b28b75] (2+0/6) Accurately ripped
07 [c8df7316|beb9fd5d] (2+0/6) Accurately ripped
08 [10ee1eae|a25a7a6e] (2+0/6) Accurately ripped
09 [bdd36f3e|e8d3c440] (2+0/6) Accurately ripped
10 [40f094df|41de823e] (2+0/6) Accurately ripped
11 [695e65ee|4f36fbb9] (2+0/6) Accurately ripped
12 [78e40bdf|24f8c567] (2+0/6) Accurately ripped
Offsetted by 6:
01 [8de8b921] (2/6) Accurately ripped
02 [a6656778] (2/6) Accurately ripped
03 [e33a8d1e] (2/6) Accurately ripped
04 [b50c849e] (2/6) Accurately ripped
05 [3082d6c2] (2/6) Accurately ripped
06 [0a68c045] (2/6) Accurately ripped
07 [b0f8862d] (2/6) Accurately ripped
08 [4ee7f2c8] (2/6) Accurately ripped
09 [8c583bcb] (2/6) Accurately ripped
10 [35e1fcaa] (2/6) Accurately ripped
11 [a5a698e9] (2/6) Accurately ripped
12 [ed3e2d6c] (2/6) Accurately ripped

Track Peak [ CRC32 ] [W/O NULL] [ LOG ]
– 100,0 [9D4369E7] [D82C61F5]
01 99,9 [B46C2D67] [9756A5D4] CRC32
02 99,9 [61AD9046] [022EE9E4] CRC32
03 99,7 [F2864BA6] [5133CE85] CRC32
04 99,9 [925A1AB9] [61FF4DA7] CRC32
05 99,9 [1E2FC3C3] [9D0A31EC] CRC32
06 99,9 [2A83A2AD] [7E9C3A19] CRC32
07 99,9 [B07F4DFE] [377E6D2C] CRC32
08 95,8 [F35AF191] [98945488] CRC32
09 99,9 [3FEC06D9] [AE5E2F5C] CRC32
10 99,1 [2EA24C9C] [7ECB5436] CRC32
11 99,9 [860B6005] [51CA018D] CRC32
12 100,0 [E2362833] [243ED43F] CRC32


All thanks go to JWolf

The Beatles in my Blog

Download The Beatles - Dr. Ebbett's Blue Box Series (2006):