Subcategories

The Rolling Stones - Black Box (2000) [4CD Box Set]

Posted By: v3122
The Rolling Stones - Black Box (2000) [4CD Box Set]

The Rolling Stones - Black Box (2000)
EAC | Flac(Image) + Cue, no Log & MP3 CBR 320Kbps
4CD | Yellow Dog | ~ 1534 or 647 Mb | Artwork(jpg) -> 7.37Mb
Blues Rock / Rock & Roll / Classic Rock | Unofficial Release

~ 4CD set comprised of rare outtakes, alternate versions, instrumentals, etc. Limited Edition, Remastered ~

The Rolling Stones - Black Box (2000):

The Rolling Stones - Black Box (2000) [4CD Box Set]

Tracklist CD1:

01 Heart Of Stone [take V] (LA, RCA Studios, 02.11.1964)
02 Not Fade Away [take I] (London, Regent Sound Studios, 10.01.1964)
03 Aftermath (a.k.a. Spector And Pitney Came Too) (London, Regent Sound Studios, 04.02.1964)
04 Andrew's Blues (London, Regent Sound Studios, 04.02.1964)
05 Don't Lie To Me (London, Regent Sound Studios, 12.05.1964)
06 Hi Heel Sneakers (Chicago, Chess Studios, 11.06.1964)
07 Stewed And Keefed (Chicago, Chess Studios, 10.06.1964)
08 Look What You've Done (Chicago, Chess Studios, 11.06.1964)
09 Tell Me Baby (Chicago, Chess Studios, 11.06.1964)
10 Down In The Bottom (Chicago, Chess Studios, 11.06.1964)
11 We're Wastin' Time (London, Regent Sound Studios, 31.08-04.09.1964)
12 Hear It [take I] (London, Regent Sound Studios, 31.08-04.09.1964)
13 Sleepy City (London, Regent Sound Studios, 31.08-04.09.1964)
14 Try A Little Harder (London, Regent Sound Studios, 13.02.1964)
15 Something Just Stick In Your Mind (London, Regent Sound Studios, 13.02.1964)
16 As Time Goes By (London, De Lane Lea Studios, 11.03.1964)
17 Blue Turns To Grey [take II] (London, Regent Sound Studios, 31.08-04.09.1964)
18 Satisfaction [take II] (Los Angeles, RCA Studios, 11.-12.05.1965)
19 Looking Tired (Los Angeles, RCA Studios, 06.09.1965)
20 Paint It Black [take I] (Los Angeles, RCA Studios, 06.-09.03.1966
21 Lady Jane [take I] (Los Angeles, RCA Studios, 06.-09.03.1966
22 Can't Believe (a.k.a. Get Yourself Together) [take III] (London, Olympic Sound Studios,08.-26.11.1966)
23 Have You Seen Your Mother Baby, Standing In The Shadow? [take II] (London, IBC, 31.08-02-09-1966
24 Have You Seen Your Mother Baby, Standing In The Shadow? [take III] (London, IBC, 31.08-02-09-1966)
25 Let's Spend The Night Together [take Ib] (Los Angeles, RCA Studios, 03.-11.08.1966)

The first CD of the set takes a look at the early years of the band with a retrospective of alternate takes and unreleased titles in excellent sound quality.

[CUETools log; Date: 05.09.2020 12:20:57; Version: 2.1.4]
[AccurateRip ID: 003daef9-045818d0-81107119] found.
Track [ CRC | V2 ] Status
01 [5df04e6b|7c4e03e1] (0+0/0) No match
02 [72e44f91|3c734a5d] (0+0/1) No match
03 [aa3c5a06|5229441f] (0+0/1) No match
04 [b1f94939|9ae59a8f] (0+0/0) No match
05 [be4a4319|eeac7ab1] (0+0/0) No match
06 [0b0fa07a|5934a9e3] (0+0/0) No match
07 [52d366aa|60f6ec16] (0+0/0) No match
08 [39e45f65|e16b4ab1] (0+0/0) No match
09 [1f38ef3a|06d06b02] (0+0/0) No match
10 [a452e8a1|741145e5] (0+0/0) No match
11 [72a6e867|1fd080c5] (0+0/0) No match
12 [730553ea|7d131bb5] (0+0/0) No match
13 [458654b1|772cb852] (0+0/0) No match
14 [c04c6898|5fc8d8e8] (0+0/0) No match
15 [6b71c49e|765d45cb] (0+0/0) No match
16 [2d0230f0|00f46c75] (0+0/0) No match
17 [fe155a42|ba983323] (0+0/0) No match
18 [facac230|624824da] (0+0/0) No match
19 [21b9bfd0|49ca199e] (0+0/0) No match
20 [4c0fd36b|2302a17b] (0+0/0) No match
21 [7ea4b5a1|9c709d99] (0+0/0) No match
22 [5c6e7fce|5a96c937] (0+0/0) No match
23 [a85502f7|5abf10eb] (0+0/0) No match
24 [ee49d222|a6b92883] (0+0/0) No match
25 [5b5363c0|66a3f82f] (0+0/0) No match
Offsetted by 6:
01 [49aa6585] (0/0) No match
02 [299b9a82] (1/1) Accurately ripped
03 [e783c5c6] (0/1) No match (V2 was not tested)
04 [e903a315] (0/0) No match
05 [51c68b34] (0/0) No match
06 [10438ab6] (0/0) No match
07 [9bf6dcd2] (0/0) No match
08 [8f215a71] (0/0) No match
09 [00c1dd8c] (0/0) No match
10 [8085c816] (0/0) No match
11 [6a4ec2ed] (0/0) No match
12 [be39047f] (0/0) No match
13 [94922dd0] (0/0) No match
14 [0c1cd6d5] (0/0) No match
15 [d7d9d157] (0/0) No match
16 [c9a8fe06] (0/0) No match
17 [55bcb9e9] (0/0) No match
18 [870d4b1c] (0/0) No match
19 [f50a7872] (0/0) No match
20 [39da38c4] (0/0) No match
21 [913aa417] (0/0) No match
22 [eeec8cbb] (0/0) No match
23 [6f866cf2] (0/0) No match
24 [207d61b9] (0/0) No match
25 [72cd8610] (0/0) No match

Track Peak [ CRC32 ] [W/O NULL]
– 99,2 [55CF83A7] [27260A29]
01 83,2 [134FD4CA] [AF5603ED]
02 62,9 [317BD687] [4EA0735C]
03 99,2 [E898178C] [AF16F8EE]
04 70,6 [F0B420AD] [93BD8105]
05 69,1 [92524E18] [92F20418]
06 95,6 [3B3B89E2] [A3640565]
07 94,1 [52BD1963] [32C96C7B]
08 83,1 [FC6F9EEC] [4CA5AF37]
09 87,8 [CAE0753B] [05B2CCE2]
10 90,7 [F84D750A] [151AA024]
11 75,1 [A989C2E6] [C3258165]
12 57,7 [E294D35B] [51B1FE1A]
13 60,1 [9404CA86] [43501B67]
14 59,1 [2EE25A02] [2468325E]
15 68,0 [108C558C] [C5C2421C]
16 61,6 [D3A75DCA] [D663CF11]
17 51,1 [1B4981E6] [10ED392A]
18 49,2 [4D858C59] [3BD6508B]
19 70,9 [22E66CD4] [0C9B7292]
20 76,1 [4362A938] [A07767BC]
21 56,3 [9AB89A6B] [1038433C]
22 64,2 [2725A6A4] [0F3E3DEF]
23 87,6 [3DBAA7EA] [E570210C]
24 81,9 [4ACC7269] [8C5E97F4]
25 63,7 [750E2864] [36D0AE61]


The Rolling Stones - Black Box (2000) [4CD Box Set]

Tracklist CD2:

01 Can't Believe (a.k.a. Get Yourself Together) [take I] (Los Angeles, RCA Studios, 03.-11.08.1966)
02 Let's Spend The Night Together [take Ia] (Los Angeles, RCA Studios, 03.-11.08.1966)
03 All Sold Out [take I] (Los Angeles, RCA Studios, 03.-11.08.1966)
04 Yesterday's Papers [take II] (Los Angeles, RCA Studios, 03.-11.08.1966)
05 Ruby Tuesday [take II] (London, Olympic SOund Studios, 08.-26.11.1966)
06 Complicated [take I] (Los Angeles, RCA Studios, 03.-11.08.1966)
07 Please Go Home [take I] (Los Angeles, RCA Studios, 03.-11.08.1966)
08 My Obsession [take I] (Los Angeles, RCA Studios, 03.-11.08.1966)
09 Cosmic Christmas (London, Olympic Sound Studios, 10.1967)
10 Family [take I] (London, Olympic Sound Studios, 13.-23.05.1968)
11 Downtown Suzie [take II] (London, Olympic Sound Studios, 17.04.-02.07.1969)
12 Give Me A Hamburger To Go (London, Olympic Sound Studios, 13.-23.05.1968)
13 And I Was A Country Boy (London, Olympic Sound Studios, 23.03.1969)
14 Memo From Turner [take IV] (London, Olympic Sound Studios, 17.11.1968)
15 Memo From Turner [take I] (London, unknown studio, 09.1968)
16 Sister Morphine [take III] (London, Olympic Sound Studios, 10.02.-31.03.1969)
17 Still A Fool (London, Olympic Sound Studios, 13.-23.05.1968)
18 You Got The Silver [take II] (London, Olympic Sound Studios, 10.02.-31.03.1969)
19 Highway Child (Redlands, KR's home, 02.1968)

The following eight songs through My Obsession are instrumentals in excellent quality that first surfaced on a CD titled "Karaoke" (VTCD YD 033) on the same label, and also included lyric sheets written in English and Japanese.
These are interesting tracks despite being instrumentals, because there is a great deal of production to be heard on these Pop efforts by a Rock 'n Roll band.

[CUETools log; Date: 05.09.2020 12:24:43; Version: 2.1.4]
[AccurateRip ID: 002d9b5e-028807c5-04114f13] found.
Track [ CRC | V2 ] Status
01 [9c89512b|ded349e3] (0+0/0) No match
02 [c6e967ff|5e1ff411] (0+0/1) No match
03 [a215804b|9a5c9b34] (0+0/2) No match
04 [8a73af64|da847d28] (0+0/1) No match
05 [e0f10911|1c0c7ee4] (0+0/1) No match
06 [10963288|f22b570e] (0+0/1) No match
07 [79e366c6|0fe9a5c7] (0+0/1) No match
08 [b8bdf760|d8353ce2] (0+0/1) No match
09 [ab55895b|1788810e] (0+0/2) No match
10 [27bf5b68|a2597539] (0+0/0) No match
11 [97f02be5|54f6f3d5] (0+0/0) No match
12 [74a0b302|296b362b] (0+0/0) No match
13 [23918da5|030e752c] (0+0/0) No match
14 [c00dad37|96616f5c] (0+0/0) No match
15 [a78c058a|84d8ca21] (0+0/0) No match
16 [29f415ed|15dc6bf1] (0+0/0) No match
17 [c2cd37d0|d261f4d0] (0+0/0) No match
18 [31752aa1|68da6dce] (0+0/0) No match
19 [37b7d300|70d2a816] (0+0/0) No match
Offsetted by -18:
01 [9a6b2255] (0/0) No match
02 [5c30d83c] (0/1) No match (V2 was not tested)
03 [bd66578e] (1/2) Accurately ripped
04 [ee37a736] (1/1) Accurately ripped
05 [1bed301e] (1/1) Accurately ripped
06 [16e1b05b] (1/1) Accurately ripped
07 [a1160efd] (1/1) Accurately ripped
08 [6e976a96] (1/1) Accurately ripped
09 [c167ed0f] (1/2) Accurately ripped
10 [a05af405] (0/0) No match
11 [22f8a8e0] (0/0) No match
12 [be5ca14f] (0/0) No match
13 [d55b112d] (0/0) No match
14 [7d335439] (0/0) No match
15 [ea95f8d4] (0/0) No match
16 [26262b4c] (0/0) No match
17 [41b99edb] (0/0) No match
18 [289d6510] (0/0) No match
19 [39b5e447] (0/0) No match
Offsetted by 6:
01 [8f342190] (0/0) No match
02 [36025e8c] (0/1) No match
03 [02329c79] (1/2) Accurately ripped
04 [31bc7a6e] (0/1) No match
05 [1a1399e0] (0/1) No match
06 [152a236b] (0/1) No match
07 [d406da3f] (0/1) No match
08 [2d8e3a03] (0/1) No match
09 [2efe7e8f] (1/2) Accurately ripped
10 [956ce887] (0/0) No match
11 [ad32c881] (0/0) No match
12 [b1755ade] (0/0) No match
13 [1a81314a] (0/0) No match
14 [e3ee3fd4] (0/0) No match
15 [1a373ab7] (0/0) No match
16 [9966f0f3] (0/0) No match
17 [303bbe06] (0/0) No match
18 [06e1418e] (0/0) No match
19 [e8bed28f] (0/0) No match

Track Peak [ CRC32 ] [W/O NULL]
– 100,0 [7DBB0F5B] [4E42B5A2]
01 65,2 [4CD16508] [EDB09CCB]
02 66,0 [90ADA21B] [51EF3EC4]
03 65,1 [94CB9FD0] [8BA5AFD7]
04 70,0 [D958D8C6] [92B1805B]
05 62,1 [0E8F7B70] [BF478B3A]
06 65,9 [B861E35D] [A7E652F3]
07 62,6 [FC5E59C8] [1BE080D9]
08 64,7 [F0C89536] [72484B27]
09 58,9 [E03B8F28] [68C58C44]
10 61,4 [48988242] [C34845CB]
11 82,6 [ABBAAC6F] [E166FDA4]
12 62,9 [DEFF4603] [C4013685]
13 61,9 [1695298B] [27EEE544]
14 66,9 [8A3B68B1] [9D9FE4A4]
15 65,6 [492F4E69] [5DADA23C]
16 100,0 [2F486BFE] [008D33D3]
17 76,1 [BEB2E3BA] [4000A93F]
18 56,9 [341C3696] [06B9085C]
19 72,1 [95FC57AB] [9C2317D9]


The Rolling Stones - Black Box (2000) [4CD Box Set]

Tracklist CD3:

SYMPATHY FOR THE DEVIL 5:57
Compressed sound with "who..who's" way down in the mix. There are also a
few bars edited from Keith's solo. Recorded at Olympic studios in June, 1968.
COUNTRY HONK 3:04
Missing the fiddle track and the familiar car horn. A transitional song that reveals the influences of the time. Gram Parson's turning Keith on to the soul of country music, and open tunings that were prevalent in the Country (Delta) Blues. Even the Rock version of the song reflects the impact of working with Ry Cooder during the "Let It Bleed" sessions, and Keith's enduring preference for Open G tuning that followed. His earlier efforts with open tunings were in open D & E on songs such as Child Of The Moon, Street Fighting Man (studio), and Prodigal Son.
GIMME SHELTER 4:22
A different mix and vocal. Lot's of bass in the opening bars of the song. Minus the Merry Clayton vocal.
Recorded at Olympic Studios in May-June, 1969.
LOVIN' CUP 6:31
This could be the pre-Hyde Park studio version of the song. First surfaced on "Time Trip 1969-1973 Vol. 1"
on Scorpio. Possibly from a May-June session at Olympic in 1969.
JIVING SISTER FANNY 3:14
Muffled sound with a different vocal take. Taylor burns it up.
HONKY TONK WOMAN 3:06
A studio version of the song containing the Paris verse that was only heard on early 70's live versions of the song.
Also missing horn arrangements. Recorded at Olympic Studios in May-June, 1969.
ALL DOWN THE LINE (acoustic) 4:22
One of the great examples of how the band can evolve songs. Slow acoustic guitar version. First surfaced in the late 70's, but this has excellent clarity and corrected speed. Recorded at Elektra studios in LA, Oct., 1969.
ALL DOWN THE LINE (electric) 3:47
This is not the 7" single version of the song that usually shows-up on these recordings. Different mix, and harp solo at 3:05. An Olympic Oct.-Nov., 1970 recording.
I DON'T KNOW THE REASON WHY 5:57
Not hard to guess why this hasn't been released. A shorter version of the song.
I'M GOING DOWN 3:04
Last of the "Metamorphosis" songs. It's the familiar guitar restart album version. Hard to say whether this is a production error or a retake by Keith.
YOU GOTTA MOVE 2:35
An alternate take of the Mississippi Fred McDowell classic. There is a lot of vocal reverb at the beginning, and the slide guitar goes into a "wah" effect at the end. A Muscle Shoals, Dec., 1969 recording. Part of the work at this studio is documented in the "Gimme Shelter" movie. Fred's original version of "You Got To Move" is found on "Fred McDowell Vol. 2" on Arhoolie Records. Order no. F 1027.
BROWN SUGAR #1 3:43
The earliest known version. Some of the fundamental tracks are inherited by later takes. Muscle Shoals, Dec., 1969.
BROWN SUGAR #2 4:29
Starts-stops-restarts-stops-restarts. Sloppy production by the manufacturer of atake that is very similar to the album.
BITCH 2:24
This is the album version of the song that starts off with some subtle cymbal tapping just before the start, and completely wipes out at 2:18 when the tape fouls-up.
GOOD TIME WOMAN 3:19
The well known first version of Tumbling Dice. An Olympic, Oct., 1970 recording.
SWAY 3:33
The 7" single version. A different mix and take.
SCHOOLBOY BLUES 3:30
The infamous let's make the last song we owe Decca a real good one! Recorded at Olympic in May, 1970.
The origins and inspiration are explained by Marshall Chess in the opening 10 minutes of the movie with the same title.
Interestingly, the song was rehearsed at the Woodstock rehearsals in preparation of the 1978 US Tour.
Was Jagger reminded of this song by a copy of an unauthorized recording purchased while in New York? He commented on unauthorized recordings at some length in an interview from the early 70's.
Found on the LP "Highway Bound" on Tofu records. There's something on this box set for everyone.
First ever releases of some songs and best quality version of the older ones. Jagger isn't too keen on the concept of retrospective box sets these days, so this is probably as good as it gets. Chris M.

[CUETools log; Date: 05.09.2020 12:29:00; Version: 2.1.4]
[AccurateRip ID: 002c3595-0225bd84-0b0fb511] found.
Track [ CRC | V2 ] Status
01 [4b62f5bc|85a60a83] (0+0/1) No match
02 [88c053b5|aa671675] (0+0/0) No match
03 [4c094609|3548dcda] (0+0/1) No match
04 [d311ae96|6e87a18e] (0+0/0) No match
05 [a9a84be7|785bc647] (0+0/0) No match
06 [1bf8e9f1|6a809afe] (0+0/1) No match
07 [c602b870|229443fd] (0+0/1) No match
08 [b6b9dba6|b8694da3] (0+0/1) No match
09 [2b84c8ab|cbc1d80f] (0+0/0) No match
10 [c7f5f13d|b43fecb5] (0+0/0) No match
11 [f726629b|823fd08c] (0+0/0) No match
12 [d74b99a3|7b14f962] (0+0/1) No match
13 [18a6ffb8|fdd9bbcb] (0+0/0) No match
14 [0bb644f0|a404a509] (0+0/2) No match
15 [1a4fcff4|420a2346] (0+0/0) No match
16 [58adae59|8df9a114] (0+0/0) No match
17 [1223ceea|79777f21] (0+0/0) No match
Offsetted by -18:
01 [ee6d2f93] (0/1) No match (V2 was not tested)
02 [548e0648] (0/0) No match
03 [028ac7a8] (1/1) Accurately ripped
04 [7734fcf3] (0/0) No match
05 [ee52fd2e] (0/0) No match
06 [69e26f0f] (1/1) Accurately ripped
07 [2ecc7cfd] (1/1) Accurately ripped
08 [c12a834d] (1/1) Accurately ripped
09 [68528d06] (0/0) No match
10 [e0b35e2b] (0/0) No match
11 [ee7eb8e4] (0/0) No match
12 [5206e187] (1/1) Accurately ripped
13 [13aa604a] (0/0) No match
14 [c76c5fdf] (1/2) Accurately ripped
15 [953f2a9d] (0/0) No match
16 [c3fca5cc] (0/0) No match
17 [9da7c006] (0/0) No match
Offsetted by 6:
01 [4c4eafd5] (0/1) No match
02 [9d3270fa] (0/0) No match
03 [d7221fe5] (0/1) No match
04 [f273606c] (0/0) No match
05 [7b8f9a82] (0/0) No match
06 [c772098f] (0/1) No match
07 [439f5b32] (0/1) No match
08 [670176bb] (0/1) No match
09 [53993dfd] (0/0) No match
10 [909d9335] (0/0) No match
11 [d94a9b1c] (0/0) No match
12 [558b2c55] (0/1) No match
13 [38d79d17] (0/0) No match
14 [d086e8aa] (1/2) Accurately ripped
15 [a0347947] (0/0) No match
16 [686768f1] (0/0) No match
17 [922980d3] (0/0) No match

Track Peak [ CRC32 ] [W/O NULL]
– 98,4 [7FCEE943] [C679E0F4]
01 90,3 [8B3F6188] [CF208DBD]
02 80,2 [12A2382B] [6BCDA647]
03 93,3 [783F9798] [3F8111CE]
04 80,1 [4A83E4E8] [EF99FFF4]
05 62,3 [4913E6A2] [5948894B]
06 86,7 [FBEDC0E6] [D78123AD]
07 80,4 [0873CE94] [BFB2C871]
08 98,4 [A6174076] [2EF0FC73]
09 91,7 [670CE496] [DB1466AB]
10 73,0 [07F05813] [E49C8BE8]
11 74,4 [AF486CF3] [32CDB64E]
12 74,8 [B0C05D85] [C088861D]
13 65,3 [CC6F3218] [C60F0788]
14 60,6 [6AA43E7A] [63BA84A2]
15 62,6 [533ACFFA] [B05B310D]
16 83,0 [A34C559A] [B6017F4F]
17 81,5 [63A46E6E] [63621B85]


The Rolling Stones - Black Box (2000) [4CD Box Set]

Tracklist CD4:

01 Confessin' The Blues [stereo] (Chicago, Chess Studios, 11.06.1964)
02 I've Been Loving You Too Long (To Stop Now) [take I] (Los Angeles, RCA Studios, 11.-12.05.1965)
03 Poison Ivy [take II] (London, Decca Studios, July 1963)
04 Fortune Teller [take II] (London, Decca Studios, 09.07.1963)
05 Time Is On My Side [take II] (London, Regent Sound Studios, 24.-26.06.1964)
06 Con Le Mie La Crime [take II] (London, IBC Studios, 15.03.1966)
07 Da Doo Ron Ron (London, Regent Sound Studios, 31.08.-04.09.1964)
08 We Love You (a.k.a. Old King Cole) [take I] (London, Olympic Sound Studios, 17.-21.05.1967)
09 Dandelion (a.k.a. Sometimes Happy, Sometimes Blue) [take I] (Los Angeles, RCA Studios, 03.-11.08.1966)
10 19th Nervous Breakdown [take I] (Los Angeles, RCA Studios, 03.-08.12.1965)
11 Yesterday's Papers [take I] (Los Angeles, RCA Studios, 03.-11.08.1966)
12 Gimme Shelter [take II] (London, Olympic Sound Studios, 10.02.-31.03.1969)
13 Sister Morphine [take II] (London, Olympic Sound Studios, 10.02.-31.03.1969)
14 Brown Sugar [take III] (London, Olympic Sound Studios, 12.1969)
15 Wild Horses [take III] (London, Olympic Sound Studios, 12.1969)
16 Sister Morphine (Los Angeles, RCA Studios, 07.1968, Faithful & Stones)
17 <Telephone Call from Japan> (March 1968, interview with Mick Jagger)

[CUETools log; Date: 05.09.2020 12:32:28; Version: 2.1.4]
[AccurateRip ID: 001f8db5-019d03e9-000ed411] found.
Track [ CRC | V2 ] Status
01 [d8a2c7f5|29291e68] (0+0/0) No match
02 [6c3c9cc0|5f81d3fd] (0+0/0) No match
03 [342056b3|f28c38ec] (0+0/0) No match
04 [92fddc96|55f79538] (0+0/0) No match
05 [b2765761|2927bb6a] (0+0/0) No match
06 [2131d17f|36f1e5f4] (0+0/0) No match
07 [0998828c|0a2e2fe9] (0+0/0) No match
08 [7129d86d|314c4c4e] (0+0/0) No match
09 [0a276ff7|74152a2a] (0+0/1) No match
10 [daf586e7|0aab3039] (0+0/0) No match
11 [b8f9ba29|0a1ef08e] (0+0/0) No match
12 [c2683ba8|b03d1d2e] (0+0/0) No match
13 [00bf79cb|7531a7da] (0+0/0) No match
14 [e73b0ae0|9116b921] (0+0/0) No match
15 [79c0c4a0|cb9f7645] (0+0/0) No match
16 [30235779|18a9b7e0] (0+0/0) No match
17 [d4b90508|de7934c8] (0+0/0) No match
Offsetted by 6:
01 [667b94cb] (0/0) No match
02 [e8125a10] (0/0) No match
03 [ec796e29] (0/0) No match
04 [754719fa] (0/0) No match
05 [90ba4015] (0/0) No match
06 [f3b7a75b] (0/0) No match
07 [debb5ff4] (0/0) No match
08 [6ae88663] (0/0) No match
09 [8f0344a3] (1/1) Accurately ripped
10 [68137dfb] (0/0) No match
11 [e4a25049] (0/0) No match
12 [22e3cace] (0/0) No match
13 [0a87f159] (0/0) No match
14 [2faaccf8] (0/0) No match
15 [4d6972c2] (0/0) No match
16 [a19b0dad] (0/0) No match
17 [dfdf4c46] (0/0) No match

Track Peak [ CRC32 ] [W/O NULL]
– 100,0 [5951C7A9] [D7AABD92]
01 76,0 [CA54A169] [2AF4B925]
02 100,0 [01E04F57] [49FF7F18]
03 100,0 [134AAB50] [07FCA169]
04 98,1 [3F925421] [520ACE91]
05 95,7 [497AAE15] [05E3290D]
06 83,4 [C837D8F7] [76404DD3]
07 98,5 [83064765] [08EB0F29]
08 89,1 [92D6ED29] [E37A8736]
09 99,9 [C63107FC] [195A1002]
10 93,4 [8BCA23CE] [E58573A9]
11 94,7 [DC15CB0B] [1DE49510]
12 99,9 [E847D04C] [B14332D3]
13 99,1 [002EE05A] [1098B3ED]
14 100,0 [A667E61F] [526B972B]
15 94,4 [713C19CC] [56336BDA]
16 97,3 [D245AA2F] [DE3CAAB4]
17 64,4 [410F691F] [8EA1C9A7]


The Rolling Stones - Black Box (2000) [4CD Box Set]

All thanks go to the original releaser

Rolling Stones in my Blog

Download The Rolling Stones - Black Box (2000):