Subcategories

Twisted Sister: Discography & Video (1982-2011) [13CDs, 6LPs, 8DVDs]

Posted By: v3122
Twisted Sister: Discography & Video (1982-2011) [13CDs, 6LPs, 8DVDs]

Twisted Sister: Discography & Video (1982-2011)
EAC | Flac(Image) + Cue + Log & MP3 CBR 320Kbps
13CD | Label: Various | ~ 3848 or 1539 Mb | Artwork -> 127 Mb
6xVinyl Rip 24/192 or 16/44 | Flac(Image + Cue) > 11.05 or 1.84 Gb | MP3 CBR 320Kbps > 738 Mb
8xDVD: NTSC 4:3 & 16:9 (720x480) VBR / PAL 4:3 (720x576) VBR
Dolby AC3, 2 ch / Dolby AC3, 6 ch / LinearPCM, 2 ch
Hard Rock / Glam Metal

US-American heavy metal band from Long Island, New York.

Although the band was formed by guitarist Jay Jay French in December 1972, all of their songs were written by Dee Snider from 1976 onward.

The soon to be named Twisted Sister was formed after Jay Jay French was added following auditions in the 'band house' located in Ho-Ho-Kus New Jersey in late December 1972. Manhattan resident John Segall (Jay Jay French) auditioned and was asked to join the 'glitter band' Silver Star. Silver Star was the creation of the drummer Mel Anderson (Mell Star) as the New Jersey version of the New York Dolls. At the same time as Silver Star/Twisted Sister was created, Mell Star's brother, Al Anderson, was the guitar player for Bob Marley & The Wailers. Jay Jay hated the name Silver Star and pushed to have it changed. On Valentine's Day in February 1973 Silver Star changed its name to Twisted Sister.

The band found work immediately and started playing 6 nights a week (mostly in the same club for the entire week). They secured a residency at the Mad Hatter in East Quogue, NY for the summer of 1973 and played 105 nights from Memorial Day to Labor day. By December 1974, when this first version of the band broke up, Jay Jay had already played nearly 600 nights and about 3,000 performances as the band played 5 x 40 minutes shows per night, each with costume changes, some ending as late as 8 am the following morning. The second version of the band changed lead singers (Rick Prince) and guitar player (Keith Angel) and continued for a couple of months into 1975 before singer Rick Prince failed to show up for a rehearsal. In the third lineup change, Jay Jay the took over the lead vocal chores and management duties. The band split up after Labor Day weekend 1975. In October 1975 the fourth version of the band started to play the club circuit. Jay Jay hired a former high school friend of Eddie Ojeda, who joined as co-lead singer and second guitarist, and got drummer Kevin John Grace after reading an ad that Kevin put in the Village Voice. Bass guitarist Kenny Neill (Kenneth Harrison Neill) remained and completed the lineup. The band followed a glam rock direction. They played at local clubs but floundered in relative anonymity.

In February 1976, at the suggestion of the band's agent, Kevin Brenner, Jay Jay was told that the band could only go so far without being able to play Led Zeppelin cover songs and urged Jay Jay to hire Danny Snider (Dee Snider). This version lasted 6 weeks before version seven began on April 1st, 1976 with new drummer Tony Petri, the group took a heavier musical direction.

At this point, the bands popularity began to soar as the band, especially Dee and Jay Jay started to talk (rap) to the audience about current topics of the day between songs.

The band went though three more line up changes between 1979 and 1982. Drummer Joey Brighton replaced Tony Petri, former The Dictators drummer Richie Teeter replaced Brighton and finally AJ Pero replaced Teeter.

The band started its own t-shirt company and record label. They released two singles which eventually made it over to the UK and caught the attention of Martin Hooker, the president of indie label Secret Records.

In June 1982, the group released its first EP, "Ruff Cuts", on the Secret Records label. This was followed shortly by their first studio album, Under the Blade, produced by Pete Way (2) of UFO (5).

Around this time, Twisted Sister updated its feminized image with a more grotesque look that distinguished them from other glam metal bands of the era. The group was now regarded more as a weird-looking heavy metal band because its look and music, although still reminiscent of pop/glam styles, were growing closer to heavy metal's leather and chains image. At this point Dee Snider quote should be noted: "I don't think Twisted Sister is "glam" because that implies glamour, and we're not glamorous. We should be called "Hid" because we're hideous."

After an appearance on the music TV program The Tube, Atlantic Records approached the band and signed them. Their first LP under Atlantic, "You Can't Stop Rock 'n Roll", produced by Stuart Epps, was released in 1983 and included the UK #19 hit "I Am (I'm Me)".

International fame came for Twisted Sister when the band's third LP, "Stay Hungry", hit the stores on May 10, 1984. "Stay Hungry" sold more than two million copies by the summer of 1985, and went on to sell more than three million in subsequent years. It remains the band's biggest success.

On November 9th, 1985, the band released its fourth studio album, "Come Out And Play", produced by Dieter Dierks. It was not nearly as successful as its predecessor, although it did earn the band a gold album for sales of 500,000 copies.

After the tour, Pero left to rejoin Cities. He was replaced by ex-Good Rats drummer Joey 'Seven' Franco.

In 1986, Snider embarked on a solo project, reportedly approaching future Iron Maiden guitarist Janick Gers, but this did not work out.

Snider then recorded an album with Franco programming the drum machine and featuring several session musicians such as Reb Beach on guitar and Kip Winger (just before they formed Winger) and Steve Whiteman of Kix. Atlantic Records refused to release it unless it was labeled as a Twisted Sister album. So, on August 13th, 1987 "Love Is for Suckers" made its debut.

On October 12th, 1987, almost two months after the release of "Love Is For Suckers", Snider left the band, the record label cancelled its contract, and Twisted Sister disbanded. The public announcement of the band's demise came in January 1988.

After the band's break-up, former members were involved in different projects:

Snider formed Desperado, Widowmaker (2), and Dee Snider's Sick Mutha Fuckers. He also wrote and starred in the movie "Strangeland".

Ojeda went on to join Scarecrow and then formed Prisoners Of War. Both projects were unsuccessful. He also worked as a session guitarist and guitar instructor.

French stopped performing except for some guest appearances. He formed French Management and produced the alternative metal band Sevendust's first self-titled album.

Mendoza briefly joined Blackfoot. Then he worked as a producer and manager. He also occasionally pursued solo projects.

Pero was involved in several projects and subsequently toured with Dee Snider's Sick Mutha Fuckers.

Franco worked as a session drummer and played with Snider's Widowmaker (2).

In June 2006, the band announced that they had signed with the American record label Razor and Tie to release a final CD with heavy metal Christmas music called "A Twisted Christmas". The CD was released on October 17th, 2006, and was a commercial success.

The group is still together and occasionally makes small tours around the world, in full makeup. Before each of these mini-tours, they performed as Bent Brother, practicing its set and appearing without makeup, usually at reduced ticket prices.

Former Twisted Sister drummer Richard Teeter, who had played with the band from 1980 to 1981, died of esophageal cancer on April 12th, 2012.
Drummer A.J. Pero died of a heart attack 20 March, 2015.

~ discogs
Twisted Sister: Discography & Video (1982-2011) [13CDs, 6LPs, 8DVDs]

Twisted Sister: Discography & Video (1982-2011):

Twisted Sister: Discography & Video (1982-2011) [13CDs, 6LPs, 8DVDs]

Tracklist CD01. 1982 - Under The Blade [1989, Atlantic, WEA, 18P2-2745, Japan]:

01. What You Don't Know (Sure Can Hurt You) (4:46)
02. Bad Boys (Of Rock 'N' Roll) (3:20)
03. Run For Your Life (3:27)
04. Sin After Sin (3:22)
05. Shoot 'Em Down (3:52)
06. Destroyer (4:15)
07. Under The Blade (4:39)
08. Tear It Loose (3:08)
09. I'll Never Grow Up, Now! (4:08)
10. Day Of The Rocker (5:01)

Exact Audio Copy V1.0 beta 3 from 29. August 2011

Отчёт EAC об извлечении, выполненном 20. декабря 2012, 20:07

Twisted Sister / Under The Blade

Дисковод: PIONEER DVD-RW DVR-111D Adapter: 4 ID: 1

Режим чтения : Достоверность
Использование точного потока : Да
Отключение кэша аудио : Да
Использование указателей C2 : Нет

Коррекция смещения при чтении : 48
Способность читать области Lead-in и Lead-out : Нет
Заполнение пропущенных сэмплов тишиной : Да
Удаление блоков с тишиной в начале и конце : Нет
При вычислениях CRC использовались нулевые сэмплы : Да
Интерфейс : Встроенный Win32-интерфейс для Win NT/2000

Выходной формат : Пользовательский кодировщик
Выбранный битрейт : 128 kBit/s
Качество : Высокий
Добавление ID3-тега : Нет
Утилита сжатия : F:\Program Files\FLAC\flac.exe
Дополнительные параметры : -V -8 -T "Date=%year%" -T "Genre=%genre%" %source%


TOC извлечённого CD

Трек | Старт | Длительность | Начальный сектор | Конечный сектор
––––––––––––––––––––––––––––––––––-
1 | 0:00.00 | 4:45.47 | 0 | 21421
2 | 4:45.47 | 3:19.38 | 21422 | 36384
3 | 8:05.10 | 3:27.17 | 36385 | 51926
4 | 11:32.27 | 3:22.25 | 51927 | 67101
5 | 14:54.52 | 3:52.33 | 67102 | 84534
6 | 18:47.10 | 4:15.05 | 84535 | 103664
7 | 23:02.15 | 4:39.35 | 103665 | 124624
8 | 27:41.50 | 3:07.70 | 124625 | 138719
9 | 30:49.45 | 4:08.07 | 138720 | 157326
10 | 34:57.52 | 5:00.70 | 157327 | 179896


Характеристики диапазона извлечения и сообщения об ошибках

Выбранный диапазон

Имя файла D:\EAC - extract\Twisted Sister - 1982 - Under The Blade (18P2-2745).wav

Пиковый уровень 100.0 %
Скорость извлечения 6.7 X
Качество диапазона 100.0 %
CRC теста 25265FDC
CRC копии 25265FDC
Копирование… OK

Ошибок не произошло


AccurateRip: сводка

Трек 1 точность не определена (достоверность 4) [BA95E3FE], AccurateRip вернул [C9AC6917] (AR v2)
Трек 2 точность не определена (достоверность 4) [DEB82875], AccurateRip вернул [EDC985D0] (AR v2)
Трек 3 точность не определена (достоверность 4) [27775A97], AccurateRip вернул [6AE5F7C7] (AR v2)
Трек 4 точность не определена (достоверность 4) [D1B6692B], AccurateRip вернул [001A1FFC] (AR v2)
Трек 5 точность не определена (достоверность 4) [FD444013], AccurateRip вернул [DC900A16] (AR v2)
Трек 6 точность не определена (достоверность 4) [9903BF42], AccurateRip вернул [4D99121C] (AR v2)
Трек 7 точность не определена (достоверность 4) [41C405EA], AccurateRip вернул [9324A7E9] (AR v2)
Трек 8 точность не определена (достоверность 4) [56C0A587], AccurateRip вернул [11952CE4] (AR v2)
Трек 9 точность не определена (достоверность 4) [6D13FCFC], AccurateRip вернул [7082D6E2] (AR v2)
Трек 10 точность не определена (достоверность 4) [76306141], AccurateRip вернул [6AB30738] (AR v2)

Ни один трек не прошёл проверки на точность
В вашей базе может быть иной вариант штамповки диска

Конец отчёта

==== Контрольная сумма отчёта E46C3F3507142275F1214930FD685135854F1E410AF2CE34B3D6CFA27AD63C8E ====


[CUETools log; Date: 15.10.2020 14:27:27; Version: 2.1.4]
[AccurateRip ID: 000ebbe5-0075e284-a0095e0a] found.
Track [ CRC | V2 ] Status
01 [1f598720|ba95e3fe] (00+00/12) No match
02 [13f8ab63|deb82875] (00+00/12) No match
03 [4af3a2d0|27775a97] (00+00/12) No match
04 [c9a31727|d1b6692b] (00+00/12) No match
05 [5928a847|fd444013] (00+00/12) No match
06 [15249fc0|9903bf42] (00+00/12) No match
07 [78eb4649|41c405ea] (00+00/12) No match
08 [24cb27ad|56c0a587] (00+00/12) No match
09 [fb4f9715|6d13fcfc] (00+00/12) No match
10 [12d32186|76306141] (00+00/12) No match
Offsetted by 61:
01 [c9ac6917] (04/12) Accurately ripped
02 [edc985d0] (04/12) Accurately ripped
03 [6ae5f7c7] (04/12) Accurately ripped
04 [001a1ffc] (04/12) Accurately ripped
05 [dc900a16] (04/12) Accurately ripped
06 [4d99121c] (04/12) Accurately ripped
07 [9324a7e9] (04/12) Accurately ripped
08 [11952ce4] (04/12) Accurately ripped
09 [7082d6e2] (04/12) Accurately ripped
10 [6ab30738] (04/12) Accurately ripped

Track Peak [ CRC32 ] [W/O NULL] [ LOG ]
– 100,0 [25265FDC] [41B0BA77] CRC32
01 87,3 [EB5FFF4C] [379A7766]
02 79,8 [415F28FF] [A386A77C]
03 100,0 [F46E0834] [609854E6]
04 83,4 [A7134FE1] [448B560D]
05 89,7 [F88201A3] [2D7DCC19]
06 78,8 [4E090419] [ACB430A7]
07 83,8 [6782E84D] [761AB61B]
08 85,8 [86B80D53] [900EAE69]
09 72,6 [3AAD886E] [BAA01811]
10 85,7 [A83AEB3C] [60C54350]


Twisted Sister: Discography & Video (1982-2011) [13CDs, 6LPs, 8DVDs]

Tracklist CD02. 1983 - You Can't Stop Rock 'n' Roll [1997, Atlantic, AMCY-3104, Japan]:

01. The Kids Are Back (3:17)
02. Like A Knife In The Back (3:05)
03. Ride To Live, Live To Ride (4:05)
04. I Am (I'm Me) (3:36)
05. The Power And The Glory (4:22)
06. We're Gonna Make It (3:45)
07. I've Had Enough (4:03)
08. I'll Take You Alive (3:07)
09. You're Not Alone (Suzette's Song) (4:06)
10. You Can't Stop Rock 'n' Roll (4:42)

Exact Audio Copy V0.99 prebeta 5 from 4. May 2009

Отчёт EAC об извлечении, выполненном 3. декабря 2011, 15:38

Twisted Sister / You Can't Stop Rock 'n' Roll

Дисковод: Optiarc DVD RW AD-7203A Adapter: 5 ID: 1

Режим чтения : Достоверность
Использование точного потока : Да
Отключение кэша аудио : Да
Использование указателей C2 : Нет

Коррекция смещения при чтении : 48
Способность читать области Lead-in и Lead-out : Нет
Заполнение пропущенных сэмплов тишиной : Да
Удаление блоков с тишиной в начале и конце : Нет
При вычислениях CRC использовались нулевые сэмплы : Да
Интерфейс : Установленный внешний ASPI-интерфейс

Выходной формат : Внутренние WAV-операции
Формат сэмплов : 44.100 Гц; 16 бит; стерео


TOC извлечённого CD

Трек | Старт | Длительность | Начальный сектор | Конечный сектор
––––––––––––––––––––––––––––––––––-
1 | 0:00.00 | 3:17.10 | 0 | 14784
2 | 3:17.10 | 3:04.67 | 14785 | 28651
3 | 6:22.02 | 4:05.25 | 28652 | 47051
4 | 10:27.27 | 3:35.48 | 47052 | 63224
5 | 14:03.00 | 4:22.25 | 63225 | 82899
6 | 18:25.25 | 3:44.72 | 82900 | 99771
7 | 22:10.22 | 4:03.10 | 99772 | 118006
8 | 26:13.32 | 3:07.08 | 118007 | 132039
9 | 29:20.40 | 4:06.27 | 132040 | 150516
10 | 33:26.67 | 4:42.15 | 150517 | 171681


Характеристики диапазона извлечения и сообщения об ошибках

Выбранный диапазон

Имя файла G:\EAC - extract\Twisted Sister - 1983 - You Can't Stop Rock 'n' Roll (AMCY-3104).wav

Пиковый уровень 100.0 %
Качество диапазона 100.0 %
CRC теста 92153FB4
CRC копии 92153FB4
Копирование… OK

Ошибок не произошло


AccurateRip: сводка

Трек 1 точность не определена (достоверность 1) [9488F313], AccurateRip вернул [FE2FA7D4]
Трек 2 точность не определена (достоверность 1) [0662B4BE], AccurateRip вернул [5BDC1A50]
Трек 3 точность не определена (достоверность 1) [509ADC0C], AccurateRip вернул [B220709F]
Трек 4 точность не определена (достоверность 1) [A0D915C6], AccurateRip вернул [5A13633D]
Трек 5 точность не определена (достоверность 1) [1028FF58], AccurateRip вернул [BC1E82F4]
Трек 6 точность не определена (достоверность 1) [FA2A8933], AccurateRip вернул [C46C8922]
Трек 7 точность не определена (достоверность 1) [9F99374C], AccurateRip вернул [4AA692AC]
Трек 8 точность не определена (достоверность 1) [49C803F8], AccurateRip вернул [EFD99EB0]
Трек 9 точность не определена (достоверность 1) [F9AF36E2], AccurateRip вернул [0093913F]
Трек 10 точность не определена (достоверность 1) [15046F23], AccurateRip вернул [32275915]

Ни один трек не прошёл проверки на точность
В вашей базе может быть иной вариант штамповки диска

Конец отчёта


[CUETools log; Date: 15.10.2020 15:06:29; Version: 2.1.4]
[AccurateRip ID: 000ddd58-007006b8-8408f10a] found.
Track [ CRC | V2 ] Status
01 [9488f313|cdb319cd] (0+2/2) Accurately ripped
02 [0662b4be|350aed10] (0+2/2) Accurately ripped
03 [509adc0c|16fb674e] (0+2/2) Accurately ripped
04 [a0d915c6|60925a8e] (0+2/2) Accurately ripped
05 [1028ff58|b56970f3] (0+2/2) Accurately ripped
06 [fa2a8933|cfe241a7] (0+2/2) Accurately ripped
07 [9f99374c|c2f2fa44] (0+2/2) Accurately ripped
08 [49c803f8|30b577fd] (0+2/2) Accurately ripped
09 [f9af36e2|d6c2b532] (0+2/2) Accurately ripped
10 [15046f23|bdf0d65f] (0+2/2) Accurately ripped
Offsetted by 409:
01 [fe2fa7d4] (0/2) No match (V2 was not tested)
02 [5bdc1a50] (0/2) No match (V2 was not tested)
03 [b220709f] (0/2) No match (V2 was not tested)
04 [5a13633d] (0/2) No match (V2 was not tested)
05 [bc1e82f4] (0/2) No match (V2 was not tested)
06 [c46c8922] (0/2) No match (V2 was not tested)
07 [4aa692ac] (0/2) No match (V2 was not tested)
08 [efd99eb0] (0/2) No match (V2 was not tested)
09 [0093913f] (0/2) No match (V2 was not tested)
10 [32275915] (0/2) No match (V2 was not tested)

Track Peak [ CRC32 ] [W/O NULL] [ LOG ]
– 100,0 [92153FB4] [F698C5A1] CRC32
01 91,6 [7BCCA3AF] [4854F324]
02 90,7 [B1D5559D] [7656A9F4]
03 100,0 [7DB5571D] [DAE4E33F]
04 100,0 [ED8EAC83] [B3431C4B]
05 95,0 [1EA1C5F2] [BCE09F0E]
06 96,8 [14646D67] [05FF095C]
07 99,5 [A33655D0] [8F8A7BEF]
08 100,0 [982F2D2C] [6B61D49D]
09 86,7 [A702CFD0] [6F125B18]
10 100,0 [7A1FE0EE] [2061A96F]


Twisted Sister: Discography & Video (1982-2011) [13CDs, 6LPs, 8DVDs]

Tracklist CD03. 1984 - Stay Hungry [1984, Atlantic, 7 80156-2, West Germany]:

01. Stay Hungry (3:05)
02. We're Not Gonna Take It (3:40)
03. Burn in Hell (4:43)
04. Horror-Teria (The Beginning): A) Captain Howdy B) Street Justice (7:44)
05. I Wanna Rock (3:03)
06. The Price (3:50)
07. Don't Let Me Down (4:28)
08. The Beast (3:29)
09. S.M.F. (3:01)

Exact Audio Copy V1.0 beta 3 from 29. August 2011

EAC extraction logfile from 10. February 2013, 16:08

Twisted Sister / Stay Hungry [Atlantic, 7 80156-2, West Germany]

Used drive : PIONEER DVD-RW DVR-220L Adapter: 3 ID: 0

Read mode : Secure
Utilize accurate stream : Yes
Defeat audio cache : Yes
Make use of C2 pointers : No

Read offset correction : 6
Overread into Lead-In and Lead-Out : No
Fill up missing offset samples with silence : Yes
Delete leading and trailing silent blocks : No
Null samples used in CRC calculations : Yes
Used interface : Installed external ASPI interface

Used output format : User Defined Encoder
Selected bitrate : 1024 kBit/s
Quality : High
Add ID3 tag : No
Command line compressor : C:\Program Files\Exact Audio Copy\FLAC\FLAC.EXE
Additional command line options : -V -8 -T "Date=%year%" -T "Genre=%genre%" %source%


TOC of the extracted CD

Track | Start | Length | Start sector | End sector
––––––––––––––––––––––––––––-
1 | 0:00.32 | 3:04.70 | 32 | 13901
2 | 3:05.27 | 3:40.03 | 13902 | 30404
3 | 6:45.30 | 4:43.20 | 30405 | 51649
4 | 11:28.50 | 7:43.62 | 51650 | 86436
5 | 19:12.37 | 3:03.20 | 86437 | 100181
6 | 22:15.57 | 3:49.55 | 100182 | 117411
7 | 26:05.37 | 4:27.45 | 117412 | 137481
8 | 30:33.07 | 3:29.23 | 137482 | 153179
9 | 34:02.30 | 3:00.70 | 153180 | 166749


Range status and errors

Selected range

Filename E:\CDRip by Deminbek\Twisted Sister - Stay Hungry [Atlantic, 7 80156-2, West Germany].wav

Peak level 91.2 %
Extraction speed 6.4 X
Range quality 100.0 %
Test CRC 918E71D9
Copy CRC 918E71D9
Copy OK

No errors occurred


AccurateRip summary

Track 1 accurately ripped (confidence 3) [E7AA86DB] (AR v2)
Track 2 accurately ripped (confidence 3) [704D10B9] (AR v2)
Track 3 accurately ripped (confidence 3) [019C8ABE] (AR v2)
Track 4 accurately ripped (confidence 3) [67D8B889] (AR v2)
Track 5 accurately ripped (confidence 3) [8C988DDE] (AR v2)
Track 6 accurately ripped (confidence 4) [6B9B5E5A] (AR v2)
Track 7 accurately ripped (confidence 3) [4915D447] (AR v2)
Track 8 accurately ripped (confidence 2) [B83CE461] (AR v2)
Track 9 accurately ripped (confidence 3) [41A9FE4A] (AR v2)

All tracks accurately ripped

End of status report

–– CUETools DB Plugin V2.1.3

[CTDB TOCID: sncb4HWLlDswDzRRG7ElMBO5fxg-] disk not present in database, Submit result: discs with pregaps not supported in this protocol version


==== Log checksum 298A9135B54193356DC6E17219802CDFC94DDA3F4FA002AF63CDCE4ECBA64868 ====


[CUETools log; Date: 15.10.2020 14:23:11; Version: 2.1.4]
Pregap length 00:00:32.
[AccurateRip ID: 000d1558-00608a04-7308af09] found.
Track [ CRC | V2 ] Status
01 [0724ea13|e7aa86db] (08+19/27) Accurately ripped
02 [fa3a40f8|704d10b9] (09+19/28) Accurately ripped
03 [ba6d4fd4|019c8abe] (08+18/26) Accurately ripped
04 [a2d781a9|67d8b889] (08+19/27) Accurately ripped
05 [7f71244e|8c988dde] (08+19/27) Accurately ripped
06 [540ec8eb|6b9b5e5a] (07+20/27) Accurately ripped
07 [19fd6a4c|4915d447] (08+18/26) Accurately ripped
08 [c85fa2b3|b83ce461] (08+17/25) Accurately ripped
09 [f99a39f8|41a9fe4a] (08+18/26) Accurately ripped

Track Peak [ CRC32 ] [W/O NULL] [ LOG ]
– 91,1 [918E71D9] [A84D956D] CRC32
01 91,1 [885B18C6] [54076AE2]
02 84,5 [40E00299] [E201A33C]
03 89,7 [7D63E64D] [28853133]
04 89,9 [C3548B03] [AC48F0B9]
05 86,5 [6546B69B] [47E54F4A]
06 90,3 [E4DA1362] [90421F40]
07 82,9 [0393F879] [4F7CF99C]
08 89,1 [3EEBC3A9] [564DA174]
09 89,9 [BE812AC0] [EE3CB610]


Twisted Sister: Discography & Video (1982-2011) [13CDs, 6LPs, 8DVDs]

Tracklist CD04. 1985 - Come Out And Play [1997, Atlantic, AMCY-3102, Japan]:

01. Come Out And Play (4:55)
02. Leader Of The Pack (3:44)
03. You Want What We Got (3:45)
04. I Believe In Rock 'N' Roll (4:03)
05. The Fire Still Burns (3:33)
06. Be Chrool To Your Scuel (3:54)
07. I Believe In You (5:23)
08. Out On The Streets (4:28)
09. Lookin' Out For #1 (3:07)
10. Kill or Be Killed (2:46)
11. King Of The Fools (6:26)

Exact Audio Copy V0.99 prebeta 5 from 4. May 2009

Отчёт EAC об извлечении, выполненном 4. июня 2011, 16:58

Twisted Sister / Come Out And Play

Дисковод: Optiarc DVD RW AD-7203A Adapter: 5 ID: 1

Режим чтения : Достоверность
Использование точного потока : Да
Отключение кэша аудио : Да
Использование указателей C2 : Нет

Коррекция смещения при чтении : 48
Способность читать области Lead-in и Lead-out : Нет
Заполнение пропущенных сэмплов тишиной : Да
Удаление блоков с тишиной в начале и конце : Нет
При вычислениях CRC использовались нулевые сэмплы : Да
Интерфейс : Установленный внешний ASPI-интерфейс

Выходной формат : Внутренние WAV-операции
Формат сэмплов : 44.100 Гц; 16 бит; стерео


TOC извлечённого CD

Трек | Старт | Длительность | Начальный сектор | Конечный сектор
––––––––––––––––––––––––––––––––––-
1 | 0:00.00 | 4:54.70 | 0 | 22119
2 | 4:54.70 | 3:44.37 | 22120 | 38956
3 | 8:39.32 | 3:44.48 | 38957 | 55804
4 | 12:24.05 | 4:03.30 | 55805 | 74059
5 | 16:27.35 | 3:33.37 | 74060 | 90071
6 | 20:00.72 | 3:54.23 | 90072 | 107644
7 | 23:55.20 | 5:23.07 | 107645 | 131876
8 | 29:18.27 | 4:27.63 | 131877 | 151964
9 | 33:46.15 | 3:07.27 | 151965 | 166016
10 | 36:53.42 | 2:46.35 | 166017 | 178501
11 | 39:40.02 | 6:26.20 | 178502 | 207471


Характеристики диапазона извлечения и сообщения об ошибках

Выбранный диапазон

Имя файла G:\EAC - extract\Twisted Sister - 1985 - Come Out And Play (Japan AMCY-3102).wav

Пиковый уровень 100.0 %
Качество диапазона 100.0 %
CRC теста F9BCEB0A
CRC копии F9BCEB0A
Копирование… OK

Ошибок не произошло


AccurateRip: сводка

Трек 1 точность не определена (достоверность 1) [7048A2F7], AccurateRip вернул [69BC5DDE]
Трек 2 точность не определена (достоверность 1) [9C4AFF0D], AccurateRip вернул [4B7E50FD]
Трек 3 точность не определена (достоверность 1) [91031709], AccurateRip вернул [A44D15B6]
Трек 4 точность не определена (достоверность 1) [FC470300], AccurateRip вернул [FD7DD818]
Трек 5 точность не определена (достоверность 1) [20595AA0], AccurateRip вернул [BDD8B090]
Трек 6 точность не определена (достоверность 1) [D2B71A3F], AccurateRip вернул [8B7215DB]
Трек 7 точность не определена (достоверность 1) [417D7FF5], AccurateRip вернул [854A93A7]
Трек 8 точность не определена (достоверность 1) [318423B8], AccurateRip вернул [852A4B0D]
Трек 9 точность не определена (достоверность 1) [473DC47C], AccurateRip вернул [C3D9F2D0]
Трек 10 точность не определена (достоверность 1) [458BED7E], AccurateRip вернул [6D9CC5B5]
Трек 11 точность не определена (достоверность 1) [EDAD7DDC], AccurateRip вернул [6286A6B1]

Ни один трек не прошёл проверки на точность
В вашей базе может быть иной вариант штамповки диска

Конец отчёта


[CUETools log; Date: 15.10.2020 14:56:28; Version: 2.1.4]
[AccurateRip ID: 0012af2c-00a1823c-8d0ace0b] found.
Track [ CRC | V2 ] Status
01 [7048a2f7|a17bdbc8] (0+0/3) No match
02 [9c4aff0d|d161c8d5] (0+0/3) No match
03 [91031709|2c104bd2] (0+0/3) No match
04 [fc470300|51fd402c] (0+0/3) No match
05 [20595aa0|218b426a] (0+0/3) No match
06 [d2b71a3f|4181a9e8] (0+0/3) No match
07 [417d7ff5|44206557] (0+0/3) No match
08 [318423b8|0da8956b] (0+0/3) No match
09 [473dc47c|a3c308f5] (0+0/3) No match
10 [458bed7e|cb0b0f43] (0+0/3) No match
11 [edad7ddc|2a3db050] (0+0/3) No match
Offsetted by -121:
01 [69bc5dde] (1/3) Accurately ripped
02 [4b7e50fd] (1/3) Accurately ripped
03 [a44d15b6] (1/3) Accurately ripped
04 [fd7dd818] (1/3) Accurately ripped
05 [bdd8b090] (1/3) Accurately ripped
06 [8b7215db] (1/3) Accurately ripped
07 [854a93a7] (1/3) Accurately ripped
08 [852a4b0d] (1/3) Accurately ripped
09 [c3d9f2d0] (1/3) Accurately ripped
10 [6d9cc5b5] (1/3) Accurately ripped
11 [6286a6b1] (1/3) Accurately ripped

Track Peak [ CRC32 ] [W/O NULL] [ LOG ]
– 100,0 [F9BCEB0A] [8B458789] CRC32
01 100,0 [DFDDDCF7] [F5B2802B]
02 100,0 [FE04EC4F] [2B2EAF8C]
03 100,0 [AF9B4AB7] [987257BD]
04 100,0 [9A5F8C8A] [05D4707A]
05 100,0 [53768421] [67A5021D]
06 100,0 [214D023A] [060A47BD]
07 100,0 [B328E07B] [A44DE9C6]
08 100,0 [E0F963AA] [04E89B65]
09 100,0 [A68FD8D5] [F45EB568]
10 100,0 [1680259E] [741EEF9D]
11 100,0 [04B13E01] [1AA1109B]


Twisted Sister: Discography & Video (1982-2011) [13CDs, 6LPs, 8DVDs]

Tracklist CD05. 1987 - Love Is For Suckers [1987, Atlantic, 32XD-807, Japan]:

01. Wake Up (The Sleeping Giant) (4:21)
02. Hot Love (3:34)
03. Love Is For Suckers (3:26)
04. I'm So Hot For You (4:06)
05. Tonight (3:53)
06. Me And The Boys (3:52)
07. One Bad Habit (3:18)
08. I Want This Night (To Last Forever) (4:20)
09. You Are All That I Need (4:17)
10. Yeah Right! (3:15)

Exact Audio Copy V0.99 prebeta 4 from 23. January 2008

EAC extraction logfile from 29. December 2010, 9:27

Twisted Sister / Love Is For Suckers (32XD-807)

Used drive : PLEXTOR DVDR PX-760A Adapter: 0 ID: 0

Read mode : Secure
Utilize accurate stream : Yes
Defeat audio cache : Yes
Make use of C2 pointers : No

Read offset correction : 30
Overread into Lead-In and Lead-Out : No
Fill up missing offset samples with silence : Yes
Delete leading and trailing silent blocks : No
Null samples used in CRC calculations : Yes
Used interface : Installed external ASPI interface

Used output format : Internal WAV Routines
Sample format : 44.100 Hz; 16 Bit; Stereo


TOC of the extracted CD

Track | Start | Length | Start sector | End sector
––––––––––––––––––––––––––––-
1 | 0:00.37 | 4:21.10 | 37 | 19621
2 | 4:21.47 | 3:33.58 | 19622 | 35654
3 | 7:55.30 | 3:25.42 | 35655 | 51071
4 | 11:20.72 | 4:05.45 | 51072 | 69491
5 | 15:26.42 | 3:52.53 | 69492 | 86944
6 | 19:19.20 | 3:52.00 | 86945 | 104344
7 | 23:11.20 | 3:17.52 | 104345 | 119171
8 | 26:28.72 | 4:19.45 | 119172 | 138641
9 | 30:48.42 | 4:17.23 | 138642 | 157939
10 | 35:05.65 | 3:15.37 | 157940 | 172601


Range status and errors

Selected range

Filename D:\bki71\Twisted Sister - Love Is For Suckers (32XD-807).wav

Peak level 100.0 %
Range quality 100.0 %
Test CRC 96744238
Copy CRC 96744238
Copy OK

No errors occurred


AccurateRip summary

Track 1 not present in database
Track 2 not present in database
Track 3 not present in database
Track 4 not present in database
Track 5 not present in database
Track 6 not present in database
Track 7 not present in database
Track 8 not present in database
Track 9 not present in database
Track 10 not present in database

None of the tracks are present in the AccurateRip database

End of status report


[CUETools log; Date: 15.10.2020 14:25:07; Version: 2.1.4]
Pregap length 00:00:37.
[AccurateRip ID: 000e9484-007469c7-8208fd0a] found.
Track [ CRC | V2 ] Status
01 [0b7f894e|d181a1cf] (0+3/3) Accurately ripped
02 [80686747|55c2b8fd] (0+3/3) Accurately ripped
03 [b698c4d4|98a2d790] (0+3/3) Accurately ripped
04 [aebe9400|d13310f1] (0+3/3) Accurately ripped
05 [069bd630|d57c79bf] (0+3/3) Accurately ripped
06 [739fe3c0|a3310866] (0+3/3) Accurately ripped
07 [00b664aa|3e8d3e84] (0+3/3) Accurately ripped
08 [f7c59012|c6253f85] (0+3/3) Accurately ripped
09 [13743601|96a7ca75] (0+3/3) Accurately ripped
10 [72d45995|359c881d] (0+3/3) Accurately ripped

Track Peak [ CRC32 ] [W/O NULL] [ LOG ]
– 100,0 [96744238] [59CEA7CC] CRC32
01 81,6 [674BC714] [3A7B5F59]
02 82,3 [48D0B848] [C5D0A347]
03 76,9 [090A0C0B] [ECB3BE43]
04 85,2 [D71C6F09] [838719C6]
05 72,3 [C6A8BD3A] [4A42899E]
06 84,9 [12891AFA] [EA9DF72F]
07 96,8 [E7771F26] [4C405E8B]
08 70,8 [83F86D09] [8B90A095]
09 71,1 [46C5F42C] [89192FCA]
10 100,0 [25A6EF35] [0EA4E0D3]


Twisted Sister: Discography & Video (1982-2011) [13CDs, 6LPs, 8DVDs]

Tracklist CD06. 1992 - Big Hits And Nasty Cuts [Atlantic, 7 82380-2, USA]:

01. We're Not Gonna Take It (3:39)
02. I Wanna Rock (3:04)
03. I Am (I'm Me) (3:36)
04. The Price (3:50)
05. You Can't Stop Rock 'N' Roll (4:43)
06. The Kids Are Back (3:17)
07. Shoot 'Em Down (3:55)
08. Under The Blade (4:40)
09. I'll Never Grow Up, Now! (4:09)
10. Be Chrool To Your Scuel (3:55)
11. What You Don't Know Sure Can Hurt You (Live Version) (6:21)
12. Destroyer (Live Version) (4:38)
13. Tear It Loose (Live Version) (3:06)
14. It's Only Rock 'N' Roll (Live Version) (10:13)
15. Let The Good Times Roll / Feel So Fine (Live Version) (4:15)

Exact Audio Copy V0.99 prebeta 4 from 23. January 2008

EAC extraction logfile from 19. May 2008, 0:36

Twisted Sister / Big Hits And Nasty Cuts

Used drive : HL-DT-STDVDRAM GSA-4163B Adapter: 1 ID: 1

Read mode : Secure
Utilize accurate stream : Yes
Defeat audio cache : Yes
Make use of C2 pointers : No

Read offset correction : 667
Overread into Lead-In and Lead-Out : No
Fill up missing offset samples with silence : Yes
Delete leading and trailing silent blocks : No
Null samples used in CRC calculations : No
Used interface : Installed external ASPI interface

Used output format : User Defined Encoder
Selected bitrate : 768 kBit/s
Quality : High
Add ID3 tag : No
Command line compressor : C:\Program Files\Exact Audio Copy\FLAC\FLAC.EXE
Additional command line options : -8 -V -T "ARTIST=%a" -T "TITLE=%t" -T "ALBUM=%g" -T "DATE=%y" -T "TRACKNUMBER=%n" -T "GENRE=%m" -T "COMMENT=%e" %s -o %d


TOC of the extracted CD

Track | Start | Length | Start sector | End sector
––––––––––––––––––––––––––––-
1 | 0:00.00 | 3:39.12 | 0 | 16436
2 | 3:39.12 | 3:03.63 | 16437 | 30224
3 | 6:43.00 | 3:35.62 | 30225 | 46411
4 | 10:18.62 | 3:49.50 | 46412 | 63636
5 | 14:08.37 | 4:42.60 | 63637 | 84846
6 | 18:51.22 | 3:17.13 | 84847 | 99634
7 | 22:08.35 | 3:54.42 | 99635 | 117226
8 | 26:03.02 | 4:40.10 | 117227 | 138236
9 | 30:43.12 | 4:08.65 | 138237 | 156901
10 | 34:52.02 | 3:54.45 | 156902 | 174496
11 | 38:46.47 | 6:20.70 | 174497 | 203066
12 | 45:07.42 | 4:37.68 | 203067 | 223909
13 | 49:45.35 | 3:05.45 | 223910 | 237829
14 | 52:51.05 | 10:12.55 | 237830 | 283784
15 | 63:03.60 | 4:15.20 | 283785 | 302929


Range status and errors

Selected range

Filename F:\Twisted Sister - Big Hits And Nasty Cuts.wav

Peak level 99.8 %
Range quality 100.0 %
Test CRC 47721E93
Copy CRC 47721E93
Copy OK

No errors occurred


AccurateRip summary

Track 1 accurately ripped (confidence 4) [72A632AB]
Track 2 accurately ripped (confidence 4) [168A7C15]
Track 3 accurately ripped (confidence 4) [F3B412F3]
Track 4 accurately ripped (confidence 4) [AAC113E4]
Track 5 accurately ripped (confidence 4) [0D405562]
Track 6 accurately ripped (confidence 4) [75B69FF4]
Track 7 accurately ripped (confidence 4) [AFF4526E]
Track 8 accurately ripped (confidence 4) [8B345D27]
Track 9 accurately ripped (confidence 3) [4A77BF6F]
Track 10 accurately ripped (confidence 4) [E430789B]
Track 11 accurately ripped (confidence 3) [B4C9F45C]
Track 12 accurately ripped (confidence 3) [7D0E9617]
Track 13 accurately ripped (confidence 3) [2174FCF7]
Track 14 accurately ripped (confidence 3) [AF7E3978]
Track 15 accurately ripped (confidence 3) [BA061DDE]

All tracks accurately ripped

End of status report


[CUETools log; Date: 15.10.2020 14:34:29; Version: 2.1.4]
[AccurateRip ID: 002141fa-0181d287-c60fc70f] found.
Track [ CRC | V2 ] Status
01 [72a632ab|26ee8de5] (12+09/28) Accurately ripped
02 [168a7c15|59c6e9db] (13+09/29) Accurately ripped
03 [f3b412f3|95e3e8e4] (13+09/29) Accurately ripped
04 [aac113e4|2f0f1570] (13+09/29) Accurately ripped
05 [0d405562|7ab2fc98] (13+09/29) Accurately ripped
06 [75b69ff4|41d789e2] (13+09/29) Accurately ripped
07 [aff4526e|338bbca0] (13+09/29) Accurately ripped
08 [8b345d27|aacc9586] (13+09/29) Accurately ripped
09 [4a77bf6f|a0fe863e] (12+09/28) Accurately ripped
10 [e430789b|32ecdc2e] (12+09/28) Accurately ripped
11 [b4c9f45c|03e047da] (11+09/27) Accurately ripped
12 [7d0e9617|081f28a4] (12+09/28) Accurately ripped
13 [2174fcf7|c44d1090] (12+09/29) Accurately ripped
14 [af7e3978|4022d15f] (11+08/26) Accurately ripped
15 [ba061dde|49b4675e] (12+08/27) Accurately ripped
Offsetted by -681:
01 [90aa0a6d] (00/28) No match (V2 was not tested)
02 [b525b141] (00/29) No match (V2 was not tested)
03 [c7e309ef] (00/29) No match (V2 was not tested)
04 [8aec1ae3] (00/29) No match (V2 was not tested)
05 [3b84c25d] (00/29) No match (V2 was not tested)
06 [58287189] (00/29) No match (V2 was not tested)
07 [26baadf0] (00/29) No match (V2 was not tested)
08 [b2431233] (00/29) No match (V2 was not tested)
09 [1377a1eb] (00/28) No match (V2 was not tested)
10 [f20ed6df] (00/28) No match (V2 was not tested)
11 [e3e6a9ac] (00/27) No match (V2 was not tested)
12 [4aeb0837] (00/28) No match (V2 was not tested)
13 [540afadf] (00/29) No match (V2 was not tested)
14 [7d5615c7] (00/26) No match (V2 was not tested)
15 [8cf673d2] (00/27) No match (V2 was not tested)
Offsetted by 1087:
01 [8124631d] (00/28) No match (V2 was not tested)
02 [a1756c61] (00/29) No match (V2 was not tested)
03 [c75d148f] (00/29) No match (V2 was not tested)
04 [eab88b8b] (00/29) No match (V2 was not tested)
05 [167a65a5] (00/29) No match (V2 was not tested)
06 [c1153fc1] (00/29) No match (V2 was not tested)
07 [0fb090a0] (00/29) No match (V2 was not tested)
08 [5ee7e253] (00/29) No match (V2 was not tested)
09 [96fb208b] (00/28) No match (V2 was not tested)
10 [c9eada3f] (00/28) No match (V2 was not tested)
11 [9a152d2c] (00/27) No match (V2 was not tested)
12 [42e0616f] (00/28) No match (V2 was not tested)
13 [96a6b453] (00/29) No match (V2 was not tested)
14 [e3bc09ef] (00/26) No match (V2 was not tested)
15 [e13c8741] (00/27) No match (V2 was not tested)

Track Peak [ CRC32 ] [W/O NULL] [ LOG ]
– 99,8 [03FA70A8] [47721E93] W/O NULL
01 99,8 [1076B29B] [2E582D25]
02 99,8 [AF52104F] [37DC6195]
03 99,8 [B4BA64D6] [8B43ADF2]
04 99,8 [D39F7B75] [A34612BB]
05 99,8 [68CDDBA4] [A174804C]
06 94,3 [D511B68F] [DF9544C6]
07 99,8 [D7715146] [E6B9D899]
08 99,8 [EEC2A19C] [1FA30B89]
09 99,8 [6991907A] [4BCE8777]
10 99,8 [6E61F5EC] [51E48131]
11 99,8 [44DEA6E8] [A264C84F]
12 99,8 [C1A951A3] [440C2688]
13 99,8 [7D9DCF30] [9FBB4A91]
14 99,8 [2C3DEE19] [77A29BA1]
15 88,6 [04F7DC45] [89AEE9B7]


Twisted Sister: Discography & Video (1982-2011) [13CDs, 6LPs, 8DVDs]

Tracklist CD07. 1995 - Live At Hammersmith CD1 [SPV, 085-18102, Germany]:

01. What You Don't Know (Sure Can Hurt You) (4:43)
02. The Kids Are Back (2:49)
03. Stay Hungry (5:09)
04. Destroyer (4:10)
05. We're Not Gonna Take It (3:17)
06. You Can't Stop Rock 'n' Roll (7:23)
07. Knife In The Back (2:47)
08. Shoot 'em Down (3:19)
09. Under The Blade (4:36)

EAC extraction logfile from 4. March 2006, 9:52 for CD
Twisted Sister / Live At Hammersmith Disc 1

Used drive : HL-DT-STRW/DVD GCC-4521B Adapter: 0 ID: 1
Read mode : Secure with NO C2, accurate stream, disable cache
Read offset correction : 6
Overread into Lead-In and Lead-Out : No

Used output format : C:\Archivos de programa\Exact Audio Copy\MAC.EXE (Monkey's Audio Lossless Encoder)
High Lossless Compression

Other options :
Fill up missing offset samples with silence : Yes
Delete leading and trailing silent blocks : No
Native Win32 interface for Win NT & 2000


Range status and errors
Selected range
Filename C:\Documents and Settings\a1\Mis documentos\Mi mъsica\esteban\Live at Hammersmith (disc 1).wav

Peak level 89.7 %
Range quality 99.9 %
CRC 33D8F26F
Copy OK

No errors occured

End of status report


[CUETools log; Date: 15.10.2020 14:36:41; Version: 2.1.4]
[AccurateRip ID: 000d27ef-0060a8a9-5d08f409] found.
Track [ CRC | V2 ] Status
01 [ee0fa39b|c34055ac] (05+03/24) Accurately ripped
02 [1d8165d7|5d61c5d3] (05+03/24) Accurately ripped
03 [0517e578|3553b27e] (05+03/24) Accurately ripped
04 [9721a932|36173ae6] (05+03/24) Accurately ripped
05 [b636df56|917ce803] (05+03/24) Accurately ripped
06 [9652fefc|49ca33da] (05+03/24) Accurately ripped
07 [64fc5df7|9601b6c7] (05+03/24) Accurately ripped
08 [57532be6|4c0426e5] (05+03/24) Accurately ripped
09 [8362c144|2f937eb5] (05+03/24) Accurately ripped
Offsetted by 1363:
01 [afbc55b8] (05/24) Accurately ripped
02 [ceb88421] (05/24) Accurately ripped
03 [fa754a70] (05/24) Accurately ripped
04 [ceeda5bc] (05/24) Accurately ripped
05 [c4cecdac] (05/24) Accurately ripped
06 [042c4c85] (05/24) Accurately ripped
07 [d0e86194] (05/24) Accurately ripped
08 [e74e66eb] (05/24) Accurately ripped
09 [303d515a] (05/24) Accurately ripped
Offsetted by 463:
01 [79f11baa] (00/24) No match (V2 was not tested)
02 [3318fb3f] (00/24) No match (V2 was not tested)
03 [804d6b9b] (00/24) No match (V2 was not tested)
04 [275c8761] (00/24) No match (V2 was not tested)
05 [324d8dd3] (00/24) No match (V2 was not tested)
06 [f0e90f2a] (00/24) No match (V2 was not tested)
07 [0b35c86b] (00/24) No match (V2 was not tested)
08 [74d6d76d] (00/24) No match (V2 was not tested)
09 [8dfc48ee] (00/24) No match (V2 was not tested)
Offsetted by 682:
01 [99070817] (00/24) No match (V2 was not tested)
02 [96530c77] (00/24) No match (V2 was not tested)
03 [8c5c9b47] (00/24) No match (V2 was not tested)
04 [19896340] (00/24) No match (V2 was not tested)
05 [93dd32e3] (00/24) No match (V2 was not tested)
06 [7b625048] (00/24) No match (V2 was not tested)
07 [216b3ed3] (00/24) No match (V2 was not tested)
08 [7450edc8] (00/24) No match (V2 was not tested)
09 [ad0b86ba] (00/24) No match (V2 was not tested)

Track Peak [ CRC32 ] [W/O NULL] [ LOG ]
– 89,7 [06A0CB36] [33D8F26F] W/O NULL
01 80,0 [CE62601A] [93A879CE]
02 88,6 [566C076A] [7C3EE109]
03 79,5 [E4FEED69] [C88F66D3]
04 80,6 [77650A3D] [C50E80C6]
05 89,0 [BC6E069E] [56C0C005]
06 89,7 [0B16FD19] [E0B34BE9]
07 84,1 [C9D1E60E] [05EEB83A]
08 84,2 [E2B156C4] [A8D4B8FB]
09 85,9 [2A7DDFBF] [487007B0]


Tracklist CD08. 1995 - Live At Hammersmith CD2 [SPV, 085-18102, Germany]:

01. Burn In Hell (5:50)
02. I Am, I'm Me (5:25)
03. I Wanna Rock (13:05)
04. SMF (7:28)
05. We're Gonna Make It (4:20)
06. Jailhouse Rock (Live At Detroit's 1979) (3:17)
07. Train Kept A Rollin' (Live 1979) (10:07)

EAC extraction logfile from 4. March 2006, 10:04 for CD
Twisted Sister / Live At Hammersmith CD 2

Used drive : HL-DT-STRW/DVD GCC-4521B Adapter: 0 ID: 1
Read mode : Secure with NO C2, accurate stream, disable cache
Read offset correction : 6
Overread into Lead-In and Lead-Out : No

Used output format : C:\Archivos de programa\Exact Audio Copy\MAC.EXE (Monkey's Audio Lossless Encoder)
High Lossless Compression

Other options :
Fill up missing offset samples with silence : Yes
Delete leading and trailing silent blocks : No
Native Win32 interface for Win NT & 2000


Range status and errors
Selected range
Filename C:\Documents and Settings\a1\Mis documentos\Mi mъsica\esteban\Live at Hammersmith (disc 2).wav

Peak level 83.4 %
Range quality 99.9 %
CRC 30A06D6C
Copy OK

No errors occured

End of status report


[CUETools log; Date: 15.10.2020 14:38:42; Version: 2.1.4]
[AccurateRip ID: 000d9d30-0051c0ae-600b9b07] found.
Track [ CRC | V2 ] Status
01 [aa04454a|3adc9732] (05+03/24) Accurately ripped
02 [600e875c|19f1dce0] (05+03/23) Accurately ripped
03 [1e4e7ab3|bac4591f] (05+03/22) Accurately ripped
04 [dd358367|157384a6] (05+03/24) Accurately ripped
05 [134f6082|94e0d7c8] (05+03/24) Accurately ripped
06 [07369b24|a80ce5d1] (05+03/24) Accurately ripped
07 [ec97e202|d521ff30] (05+03/22) Accurately ripped
Offsetted by 1338:
01 [e62a4754] (05/24) Accurately ripped
02 [5ff98459] (04/23) Accurately ripped
03 [9a9951b8] (05/22) Accurately ripped
04 [5f3a6cdb] (05/24) Accurately ripped
05 [c12e43a5] (05/24) Accurately ripped
06 [ffc0d9c4] (05/24) Accurately ripped
07 [c4ff4bdf] (04/22) Accurately ripped
Offsetted by 669:
01 [8cbb9840] (00/24) No match (V2 was not tested)
02 [bba6cb20] (00/23) No match (V2 was not tested)
03 [612396ca] (00/22) No match (V2 was not tested)
04 [ad868748] (00/24) No match (V2 was not tested)
05 [17772222] (00/24) No match (V2 was not tested)
06 [7d1284cf] (00/24) No match (V2 was not tested)
07 [d92f4949] (00/22) No match (V2 was not tested)

Track Peak [ CRC32 ] [W/O NULL] [ LOG ]
– 83,4 [1FC21486] [30A06D6C] W/O NULL
01 83,4 [9D7EDC2A] [C8C054B1]
02 80,1 [6BD77266] [D95D0300]
03 79,1 [A259F57D] [AEB75B56]
04 81,2 [B4FDF592] [707001CA]
05 76,6 [93B31884] [EECD46C0]
06 83,0 [138ED482] [3E0E04A3]
07 77,4 [39735628] [92D62DFC]


Twisted Sister: Discography & Video (1982-2011) [13CDs, 6LPs, 8DVDs]

Tracklist CD09. 1999 - Club Daze, Studio Sessions [Armoury, ARMCD536, Germany]:

01. Come Back (6:32)
02. Pay the Price (4:30)
03. Rock & Roll Saviors (4:39)
04. High Steppin' (2:47)
05. Big Gun (4:04)
06. T.V. Wife (4:04)
07. Can't Stand Still (3:58)
08. Follow Me (3:54)
09. I'll Never Grow Up Now (4:14)
10. Lady's Boy (4:23)
11. Leader of the Pack (3:56)
12. Under the Blade (4:31)
13. Shoot 'Em Down (3:44)

Exact Audio Copy V1.0 beta 3 from 29. August 2011

Отчёт EAC об извлечении, выполненном 6. февраля 2013, 13:11

Twisted Sister / Club Daze, Studio Sessions

Дисковод: ATAPI iHAP122 W Adapter: 1 ID: 1

Режим чтения : Достоверность
Использование точного потока : Да
Отключение кэша аудио : Да
Использование указателей C2 : Нет

Коррекция смещения при чтении : 6
Способность читать области Lead-in и Lead-out : Нет
Заполнение пропущенных сэмплов тишиной : Да
Удаление блоков с тишиной в начале и конце : Нет
При вычислениях CRC использовались нулевые сэмплы : Да
Интерфейс : Встроенный Win32-интерфейс для Win NT/2000

Выходной формат : Пользовательский кодировщик
Выбранный битрейт : 1024 kBit/s
Качество : Высокий
Добавление ID3-тега : Нет
Утилита сжатия : C:\Program Files (x86)\Exact Audio Copy\FLAC\FLAC.EXE
Дополнительные параметры : -6 -V -T "ARTIST=%artist%" -T "TITLE=%title%" -T "ALBUM=%albumtitle%" -T "DATE=%year%" -T "TRACKNUMBER=%tracknr%" -T "GENRE=%genre%" -T "COMMENT=%comment%" -T "BAND=%albuminterpret%" -T "ALBUMARTIST=%albuminterpret%" -T "COMPOSER=%composer%" %haslyrics%–tag-from-file=LYRICS="%lyricsfile%"%haslyrics% -T "DISCNUMBER=%cdnumber%" -T "TOTALDISCS=%totalcds%" -T "TOTALTRACKS=%numtracks%" %hascover%–picture="%coverfile%"%hascover% %source% -o %dest%


TOC извлечённого CD

Трек | Старт | Длительность | Начальный сектор | Конечный сектор
––––––––––––––––––––––––––––––––––-
1 | 0:00.00 | 6:32.07 | 0 | 29406
2 | 6:32.07 | 4:30.27 | 29407 | 49683
3 | 11:02.34 | 4:39.24 | 49684 | 70632
4 | 15:41.58 | 2:47.24 | 70633 | 83181
5 | 18:29.07 | 4:04.30 | 83182 | 101511
6 | 22:33.37 | 4:03.68 | 101512 | 119804
7 | 26:37.30 | 3:58.03 | 119805 | 137657
8 | 30:35.33 | 3:54.24 | 137658 | 155231
9 | 34:29.57 | 4:13.41 | 155232 | 174247
10 | 38:43.23 | 4:22.60 | 174248 | 193957
11 | 43:06.08 | 3:56.05 | 193958 | 211662
12 | 47:02.13 | 4:31.34 | 211663 | 232021
13 | 51:33.47 | 3:43.52 | 232022 | 248798


Характеристики диапазона извлечения и сообщения об ошибках

Выбранный диапазон

Имя файла C:\Users\Дмитрий\Documents\Twisted Sister 99\Twisted Sister - Club Daze, Studio Sessions.wav

Пиковый уровень 100.0 %
Скорость извлечения 3.0 X
Качество диапазона 99.9 %
CRC теста 8D42B7CB
CRC копии 8D42B7CB
Копирование… OK

Ошибок не произошло


AccurateRip: сводка

Трек 1 точность не определена (достоверность 6) [132E2FE8], AccurateRip вернул [6303E830] (AR v2)
Трек 2 точность не определена (достоверность 6) [F398E87E], AccurateRip вернул [EF02D650] (AR v2)
Трек 3 точность не определена (достоверность 6) [10FAB60A], AccurateRip вернул [0B9FC64C] (AR v2)
Трек 4 точность не определена (достоверность 6) [CEDE06C1], AccurateRip вернул [88B82E0B] (AR v2)
Трек 5 точность не определена (достоверность 6) [084D51D2], AccurateRip вернул [897F4C04] (AR v2)
Трек 6 точность не определена (достоверность 6) [E757BF62], AccurateRip вернул [C6514570] (AR v2)
Трек 7 точность не определена (достоверность 6) [77F5F40B], AccurateRip вернул [46ED5F01] (AR v2)
Трек 8 точность не определена (достоверность 6) [B3526A9B], AccurateRip вернул [6F3C0C68] (AR v2)
Трек 9 точность не определена (достоверность 6) [467CBD9F], AccurateRip вернул [E2487F64] (AR v2)
Трек 10 точность не определена (достоверность 6) [AF0763E9], AccurateRip вернул [B9F5C2C4] (AR v2)
Трек 11 точность не определена (достоверность 6) [EE146D1F], AccurateRip вернул [CAECAAF3] (AR v2)
Трек 12 точность не определена (достоверность 6) [028D98D0], AccurateRip вернул [E74F2FF9] (AR v2)
Трек 13 точность не определена (достоверность 6) [3F1365B1], AccurateRip вернул [2568D74A] (AR v2)

Ни один трек не прошёл проверки на точность
В вашей базе может быть иной вариант штамповки диска

Конец отчёта


[CUETools log; Date: 15.10.2020 15:09:03; Version: 2.1.4]
[AccurateRip ID: 001b95bb-010f1d86-bd0cf50d] found.
Track [ CRC | V2 ] Status
01 [280f3f52|132e2fe8] (00+00/25) No match
02 [978badf4|f398e87e] (00+00/26) No match
03 [a8b22248|10fab60a] (00+00/25) No match
04 [12afb233|cede06c1] (00+00/26) No match
05 [d714b298|084d51d2] (00+00/25) No match
06 [776c520a|e757bf62] (00+00/25) No match
07 [c268b497|77f5f40b] (00+00/25) No match
08 [3ea5e776|b3526a9b] (00+00/26) No match
09 [da6f1098|467cbd9f] (00+00/26) No match
10 [5398b5c0|af0763e9] (00+00/26) No match
11 [92b37bf9|ee146d1f] (00+00/26) No match
12 [31502345|028d98d0] (00+00/26) No match
13 [ccdb5a1c|3f1365b1] (00+00/25) No match
Offsetted by 210:
01 [6303e830] (07/25) Accurately ripped
02 [ef02d650] (07/26) Accurately ripped
03 [0b9fc64c] (07/25) Accurately ripped
04 [88b82e0b] (07/26) Accurately ripped
05 [897f4c04] (07/25) Accurately ripped
06 [c6514570] (07/25) Accurately ripped
07 [46ed5f01] (07/25) Accurately ripped
08 [6f3c0c68] (07/26) Accurately ripped
09 [e2487f64] (07/26) Accurately ripped
10 [b9f5c2c4] (07/26) Accurately ripped
11 [caecaaf3] (07/26) Accurately ripped
12 [e74f2ff9] (07/26) Accurately ripped
13 [2568d74a] (07/25) Accurately ripped
Offsetted by 48:
01 [52cad3a2] (00/25) No match (V2 was not tested)
02 [b2da1d94] (00/26) No match (V2 was not tested)
03 [58e873a8] (00/25) No match (V2 was not tested)
04 [76cee473] (00/26) No match (V2 was not tested)
05 [9225bfb8] (00/25) No match (V2 was not tested)
06 [7383651a] (00/25) No match (V2 was not tested)
07 [bc20a107] (00/25) No match (V2 was not tested)
08 [5861d2a6] (00/26) No match (V2 was not tested)
09 [75d3f6b8] (00/26) No match (V2 was not tested)
10 [f5f71f20] (00/26) No match (V2 was not tested)
11 [b57eb9e9] (00/26) No match (V2 was not tested)
12 [3da7b125] (00/26) No match (V2 was not tested)
13 [a58d6493] (00/25) No match (V2 was not tested)
Offsetted by 124:
01 [411e7e76] (00/25) No match (V2 was not tested)
02 [c8c0f8fc] (00/26) No match (V2 was not tested)
03 [053e7480] (00/25) No match (V2 was not tested)
04 [eaaaf403] (00/26) No match (V2 was not tested)
05 [ba561480] (00/25) No match (V2 was not tested)
06 [ad52989e] (00/25) No match (V2 was not tested)
07 [c783d763] (00/25) No match (V2 was not tested)
08 [0120b1b2] (00/26) No match (V2 was not tested)
09 [56890dc0] (00/26) No match (V2 was not tested)
10 [61b745f8] (00/26) No match (V2 was not tested)
11 [574086a5] (00/26) No match (V2 was not tested)
12 [a687a71d] (00/26) No match (V2 was not tested)
13 [8d1da0ce] (00/25) No match (V2 was not tested)

Track Peak [ CRC32 ] [W/O NULL] [ LOG ]
– 100,0 [8D42B7CB] [98E3B82B] CRC32
01 100,0 [4634B0D0] [D8165081]
02 100,0 [E2592408] [63468D81]
03 100,0 [C04C6331] [D608166C]
04 99,9 [4C004F94] [2E0FF859]
05 100,0 [87CDA446] [EECDEEAA]
06 100,0 [CAE102F7] [557BE505]
07 100,0 [C4B61CBB] [D98BBAEE]
08 100,0 [B9DE2844] [9A4557DC]
09 100,0 [9E9E5D31] [12EE7670]
10 100,0 [484023AF] [8534C4FB]
11 99,9 [7558D15E] [676A9F93]
12 100,0 [2738C52D] [994281D2]
13 100,0 [A4C95142] [7EA74385]


Twisted Sister: Discography & Video (1982-2011) [13CDs, 6LPs, 8DVDs]

Tracklist CD10. 2001 - Never Say never…Club Daze Vol 2 [Spitfire, SPITCD059, Germany]:

01. Never Say Never (2:21)
02. Blastin Fast & Loud (3:01)
03. Follow Me (3:31)
04. Under The Blade (5:02)
05. Lady's Boy (5:10)
06. Come Back (6:55)
07. Can't Stand Still (4:49)
08. Honey,Look Three Times (4:13)
09. You Know I Cry (5:53)
10. Without You (2:28)
11. Plastic Money (4:11)
12. Long Tall Sally (2:26)
13. Johnny B. Goode (4:20)

EAC extraction logfile from 24. January 2007, 10:29 for CD
Twisted Sister / Never Say never…Club Daze Vol 2

Used drive : HL-DT-STDVDRRW GSA-2164D Adapter: 4 ID: 0
Read mode : Secure with NO C2, accurate stream, disable cache
Read offset correction : 102
Overread into Lead-In and Lead-Out : No

Used output format : Internal WAV Routines
44.100 Hz; 16 Bit; Stereo

Other options :
Fill up missing offset samples with silence : Yes
Delete leading and trailing silent blocks : No
Native Win32 interface for Win NT & 2000


Range status and errors
Selected range
Filename D:\Lphant mъsica\TS\Twisted Sister - Never Say never…Club Daze Vol 2.wav

Peak level 100.0 %
Range quality 100.0 %
CRC 584C1093
Copy OK

No errors occured

End of status report


[CUETools log; Date: 15.10.2020 15:22:14; Version: 2.1.4]
[AccurateRip ID: 0019ec87-01087218-900cbb0d] found.
Track [ CRC | V2 ] Status
01 [ca2ecf64|940774ff] (09+14/23) Accurately ripped
02 [4bdcd963|0552546f] (09+14/23) Accurately ripped
03 [51c2e66b|d997fe5b] (09+14/23) Accurately ripped
04 [1c542192|d9545d11] (09+14/23) Accurately ripped
05 [0b58e225|77a643c2] (09+14/23) Accurately ripped
06 [ac650b0d|6a56a71a] (09+14/23) Accurately ripped
07 [d4cdf5c6|4753515c] (09+14/23) Accurately ripped
08 [90b58f68|29d1f8d6] (09+14/23) Accurately ripped
09 [2eaed921|ed7b751c] (09+15/24) Accurately ripped
10 [1e669d6c|ac3f972e] (09+14/23) Accurately ripped
11 [e249d5cd|268db4a5] (09+14/23) Accurately ripped
12 [69d314cf|531cb1b4] (09+14/23) Accurately ripped
13 [1909afd8|a256f944] (09+14/23) Accurately ripped

Track Peak [ CRC32 ] [W/O NULL] [ LOG ]
– 100,0 [0B9F02D3] [584C1093] W/O NULL
01 100,0 [34588557] [94D46F10]
02 100,0 [CB479152] [5505EAC7]
03 100,0 [5DA44E7A] [65AA4E4E]
04 100,0 [7233DE43] [24C20CE8]
05 100,0 [2CED08C4] [7D0CA482]
06 100,0 [0EE3D98A] [AFB249E6]
07 100,0 [468BDE9A] [88375825]
08 100,0 [85E946AE] [FC92AA4C]
09 100,0 [267C2EAF] [E2C9984B]
10 100,0 [F0968B8B] [166AC524]
11 89,1 [78255A5C] [9D6D31B0]
12 89,1 [F358CEFB] [75D59A0B]
13 89,1 [A0DD35EA] [404EF5E9]


Twisted Sister: Discography & Video (1982-2011) [13CDs, 6LPs, 8DVDs]

Tracklist CD11. 2004 - Still Hungry [Spitfire, SPT 15142-2, USA]:

01. Stay Hungry (3:15)
02. We're Not Gonna Take It (4:37)
03. Burn In Hell (5:38)
04. Horror Teria: (a) Captain Howdy / (b) Street Justice (8:42)
05. I Wanna Rock (3:15)
06. The Price (4:08)
07. Don't Let Me Down (4:46)
08. The Beast (3:26)
09. S.M.F. (3:28)
10. Never Say Never (2:19)
11. Blastin' Fast & Loud (3:01)
12. Hero's Are Hard To Find (6:25)
13. Plastic Money (4:06)
14. Come Back (4:21)
15. You Know I Cry (5:04)
16. Rock n Roll Saviors (5:01)

EAC extraction logfile from 16. December 2006, 10:53 for CD
Twisted Sister / Still Hungry

Used drive : HL-DT-STDVDRAM GSA-4120B Adapter: 1 ID: 0
Read mode : Secure with NO C2, accurate stream, disable cache
Read offset correction : 667
Overread into Lead-In and Lead-Out : No

Used output format : C:\Programmi\wavpack\wavpack.exe (User Defined Encoder)
128 kBit/s
Additional command line options : -hm -w "Cuesheet=@*.cue" -w "Artist=%a" -w "Album=%g" -w "Year=%y" -w "Genre=%m" %s %d

Other options :
Fill up missing offset samples with silence : Yes
Delete leading and trailing silent blocks : No
Installed external ASPI interface


Range status and errors
Selected range
Filename D:\Cd\To Share\Twisted Sister - 2004 - Still Hungry (Eac-Wv) by Sapo Malo (WWR)\Twisted Sister - Still Hungry.wav.wav

Peak level 100.0 %
Range quality 100.0 %
CRC A3964454
Copy OK

No errors occured

End of status report


[CUETools log; Date: 15.10.2020 15:25:08; Version: 2.1.4]
[AccurateRip ID: 002a3999-01f601c8-0110c410] found.
Track [ CRC | V2 ] Status
01 [682a72a6|f61375cc] (14+14/76) Accurately ripped
02 [062ca57f|2331eb63] (14+14/77) Accurately ripped
03 [13736955|28265d55] (15+14/77) Accurately ripped
04 [6d1c985a|1acd808e] (14+14/76) Accurately ripped
05 [4cf59466|ae579bc6] (15+14/77) Accurately ripped
06 [0f091523|d57fee07] (15+14/78) Accurately ripped
07 [8451d7d5|3154431b] (14+14/76) Accurately ripped
08 [a25f26ff|112f2f8d] (15+14/77) Accurately ripped
09 [531de4db|8c1c3f30] (14+14/76) Accurately ripped
10 [42b8a25f|5458b506] (14+14/76) Accurately ripped
11 [d2466e6b|cfe88aae] (14+14/76) Accurately ripped
12 [cba96eea|01f6db38] (14+14/76) Accurately ripped
13 [37e12a1b|4af1c186] (14+14/76) Accurately ripped
14 [e3cf04c7|85cbf804] (14+14/76) Accurately ripped
15 [5ff19cec|4fb8b7be] (13+14/75) Accurately ripped
16 [292cfd14|126b5742] (14+14/77) Accurately ripped
Offsetted by -727:
01 [eee4dea7] (03/76) Accurately ripped
02 [fd063d62] (03/77) Accurately ripped
03 [252ed4d5] (03/77) Accurately ripped
04 [3dd7544f] (03/76) Accurately ripped
05 [16730dcc] (03/77) Accurately ripped
06 [01244794] (03/78) Accurately ripped
07 [498811e4] (03/76) Accurately ripped
08 [ea9d8a63] (03/77) Accurately ripped
09 [a8b177e3] (03/76) Accurately ripped
10 [d3bcd711] (03/76) Accurately ripped
11 [7083ded8] (03/76) Accurately ripped
12 [50c0efb8] (03/76) Accurately ripped
13 [d8cb6ce4] (03/76) Accurately ripped
14 [734b3bac] (03/76) Accurately ripped
15 [097db1e0] (03/75) Accurately ripped
16 [feaca81c] (03/77) Accurately ripped
Offsetted by -661:
01 [e9b49b19] (02/76) Accurately ripped
02 [83aa4c78] (02/77) Accurately ripped
03 [3202b3d5] (02/77) Accurately ripped
04 [d0befb69] (02/76) Accurately ripped
05 [6eda7538] (02/77) Accurately ripped
06 [51fc21e6] (02/78) Accurately ripped
07 [e4bef0f8] (02/76) Accurately ripped
08 [8e808462] (02/77) Accurately ripped
09 [20ec84ba] (02/76) Accurately ripped
10 [8a590120] (02/76) Accurately ripped
11 [e2b01897] (02/76) Accurately ripped
12 [6c764374] (02/76) Accurately ripped
13 [fd98ee66] (02/76) Accurately ripped
14 [ba6d61a6] (02/76) Accurately ripped
15 [ff075688] (02/75) Accurately ripped
16 [b8eff1ac] (02/77) Accurately ripped
Offsetted by -6:
01 [3a179010] (02/76) Accurately ripped
02 [8592187d] (02/77) Accurately ripped
03 [cc776c55] (02/77) Accurately ripped
04 [313614cc] (02/76) Accurately ripped
05 [d08f16a2] (02/77) Accurately ripped
06 [93528ced] (02/78) Accurately ripped
07 [3d8e80b1] (02/76) Accurately ripped
08 [799e893c] (02/77) Accurately ripped
09 [25f76fa4] (02/76) Accurately ripped
10 [cdf3a5a0] (02/76) Accurately ripped
11 [e63f0500] (02/76) Accurately ripped
12 [0ef60a36] (02/76) Accurately ripped
13 [7a5a1e55] (02/76) Accurately ripped
14 [97861899] (02/76) Accurately ripped
15 [a6b68df4] (02/75) Accurately ripped
16 [2f83f664] (02/77) Accurately ripped
Offsetted by 3:
01 [7f33e3f1] (12/76) Accurately ripped
02 [c679ec00] (13/77) Accurately ripped
03 [36f167d5] (12/77) Accurately ripped
04 [0b0fda21] (12/76) Accurately ripped
05 [8b28d348] (13/77) Accurately ripped
06 [cce4593e] (13/78) Accurately ripped
07 [a6ee1f8e] (12/76) Accurately ripped
08 [03f95e31] (12/77) Accurately ripped
09 [6a079f79] (12/76) Accurately ripped
10 [fd0da0cc] (12/76) Accurately ripped
11 [4857a313] (12/76) Accurately ripped
12 [aa032144] (12/76) Accurately ripped
13 [96a4affe] (12/76) Accurately ripped
14 [09f37ade] (12/76) Accurately ripped
15 [bc8f2468] (12/75) Accurately ripped
16 [a601806c] (13/77) Accurately ripped
Offsetted by 569:
01 [ced40d37] (03/76) Accurately ripped
02 [7f6d3712] (03/77) Accurately ripped
03 [09cc4cd5] (03/77) Accurately ripped
04 [c856541f] (03/76) Accurately ripped
05 [0ced2b2c] (03/77) Accurately ripped
06 [63273524] (03/78) Accurately ripped
07 [ea34fb7a] (03/76) Accurately ripped
08 [ed95ec6d] (03/77) Accurately ripped
09 [f5326b2b] (03/76) Accurately ripped
10 [dab09779] (03/76) Accurately ripped
11 [160651e0] (03/76) Accurately ripped
12 [881de798] (03/76) Accurately ripped
13 [c2bd5bf4] (03/76) Accurately ripped
14 [d0d2827c] (03/76) Accurately ripped
15 [53525320] (03/75) Accurately ripped
16 [a54a4c9c] (03/77) Accurately ripped
Offsetted by -709:
01 [791d8669] (00/76) No match (V2 was not tested)
02 [7ed5e468] (00/77) No match (V2 was not tested)
03 [fa22cbd5] (00/77) No match (V2 was not tested)
04 [f18adef9] (00/76) No match (V2 was not tested)
05 [8ba68718] (00/77) No match (V2 was not tested)
06 [7447e036] (00/78) No match (V2 was not tested)
07 [c192c318] (00/76) No match (V2 was not tested)
08 [6237ad18] (00/77) No match (V2 was not tested)
09 [0e3ceddc] (00/76) No match (V2 was not tested)
10 [64519b08] (00/76) No match (V2 was not tested)
11 [02544d5f] (00/76) No match (V2 was not tested)
12 [86db1dd4] (00/76) No match (V2 was not tested)
13 [11609036] (00/76) No match (V2 was not tested)
14 [58260036] (00/76) No match (V2 was not tested)
15 [352edec8] (00/75) No match (V2 was not tested)
16 [eba7bc2c] (00/77) No match (V2 was not tested)

Track Peak [ CRC32 ] [W/O NULL] [ LOG ]
– 100,0 [3E7CBA40] [A3964454] W/O NULL
01 100,0 [54670B03] [A931967B]
02 98,8 [599D7303] [3E9B764A]
03 98,8 [ABC709DB] [69D5A371]
04 98,8 [ABE6EA46] [B5A73540]
05 98,8 [8C0FE82C] [83DCB818]
06 98,8 [DED002AA] [C3C7E0E6]
07 98,8 [FA2BBA77] [6599C848]
08 98,8 [5482A807] [93000D47]
09 98,8 [EA4399E5] [634BE6A9]
10 99,2 [C40FDA8D] [C448ABBD]
11 99,2 [0000A0C2] [292B2344]
12 98,8 [6C4BFC06] [78504896]
13 98,8 [9466EE46] [23A85551]
14 98,8 [0F61722C] [FF579F34]
15 98,8 [315AD246] [5CA399B7]
16 98,8 [1CB68A3C] [AEF1C50A]


Twisted Sister: Discography & Video (1982-2011) [13CDs, 6LPs, 8DVDs]

Tracklist CD12. 2006 - A Twisted Christmas [Razor & Tie, 7930182964-2, USA]:

01. Have Yourself a Merry Little Christmas (4:48)
02. O Come All Ye Faithful (4:40)
03. White Christmas (3:57)
04. I'll Be Home for Christmas (4:08)
05. Silver Bells (5:05)
06. I Saw Mommy Kissing Santa Claus (3:39)
07. Let It Snow (3:10)
08. Deck the Halls (2:52)
09. The Christmas Song (Chestnuts Roasting on an Open Fire) (3:40)
10. Heavy Metal Christmas (The Twelve Days of Christmas) (5:15)
11. Twisted Christmas Cheer (0:36)

Exact Audio Copy V1.0 beta 3 from 29. August 2011

Отчёт EAC об извлечении, выполненном 9. февраля 2013, 22:28

Twisted Sister / A Twisted Christmas

Дисковод: TSSTcorpCDDVDW SH-S223C Adapter: 3 ID: 0

Режим чтения : Достоверность
Использование точного потока : Да
Отключение кэша аудио : Да
Использование указателей C2 : Нет

Коррекция смещения при чтении : 697
Способность читать области Lead-in и Lead-out : Нет
Заполнение пропущенных сэмплов тишиной : Да
Удаление блоков с тишиной в начале и конце : Нет
При вычислениях CRC использовались нулевые сэмплы : Да
Интерфейс : Встроенный Win32-интерфейс для Win NT/2000

Выходной формат : Пользовательский кодировщик
Выбранный битрейт : 896 kBit/s
Качество : Высокий
Добавление ID3-тега : Нет
Утилита сжатия : C:\Program Files (x86)\Exact Audio Copy\FLAC\FLAC.EXE
Дополнительные параметры : -6 -V -T "ARTIST=%artist%" -T "TITLE=%title%" -T "ALBUM=%albumtitle%" -T "DATE=%year%" -T "TRACKNUMBER=%tracknr%" -T "GENRE=%genre%" -T "COMMENT=%comment%" -T "BAND=%albuminterpret%" -T "ALBUMARTIST=%albuminterpret%" -T "COMPOSER=%composer%" %haslyrics%–tag-from-file=LYRICS="%lyricsfile%"%haslyrics% -T "DISCNUMBER=%cdnumber%" -T "TOTALDISCS=%totalcds%" -T "TOTALTRACKS=%numtracks%" %hascover%–picture="%coverfile%"%hascover% %source% -o %dest%


TOC извлечённого CD

Трек | Старт | Длительность | Начальный сектор | Конечный сектор
––––––––––––––––––––––––––––––––––-
1 | 0:00.00 | 4:48.04 | 0 | 21603
2 | 4:48.04 | 4:39.72 | 21604 | 42600
3 | 9:28.01 | 3:56.54 | 42601 | 60354
4 | 13:24.55 | 4:08.27 | 60355 | 78981
5 | 17:33.07 | 5:05.02 | 78982 | 101858
6 | 22:38.09 | 3:39.19 | 101859 | 118302
7 | 26:17.28 | 3:09.44 | 118303 | 132521
8 | 29:26.72 | 2:52.09 | 132522 | 145430
9 | 32:19.06 | 3:40.19 | 145431 | 161949
10 | 35:59.25 | 5:14.64 | 161950 | 185563
11 | 41:14.14 | 0:36.07 | 185564 | 188270


Характеристики диапазона извлечения и сообщения об ошибках

Выбранный диапазон

Имя файла C:\dymd\Twisted Sister - A Twisted Christmas.wav

Пиковый уровень 100.0 %
Скорость извлечения 3.1 X
Качество диапазона 99.9 %
CRC теста 1A61D34A
CRC копии 1A61D34A
Копирование… OK

Ошибок не произошло


AccurateRip: сводка

Трек 1 : извлечено точно (доверие 6) [97080A90] (AR v2)
Трек 2 : извлечено точно (доверие 6) [4A37FC7C] (AR v2)
Трек 3 : извлечено точно (доверие 6) [5339FCD9] (AR v2)
Трек 4 : извлечено точно (доверие 6) [61019059] (AR v2)
Трек 5 : извлечено точно (доверие 6) [788A0718] (AR v2)
Трек 6 : извлечено точно (доверие 6) [C1787593] (AR v2)
Трек 7 : извлечено точно (доверие 6) [289FB8C0] (AR v2)
Трек 8 : извлечено точно (доверие 6) [6DF1180D] (AR v2)
Трек 9 : извлечено точно (доверие 6) [C8D94208] (AR v2)
Трек 10 : извлечено точно (доверие 6) [5A4CB469] (AR v2)
Трек 11 : извлечено точно (доверие 6) [B5E4753D] (AR v2)

Все треки извлечены точно

Конец отчёта

==== Контрольная сумма отчёта B7904E03CF439DAF19A0DBBD86B96BBFD7DD4A4C36F08FC7A558C4432F9035D8 ====


[CUETools log; Date: 15.10.2020 15:30:55; Version: 2.1.4]
[AccurateRip ID: 0012e1c2-00a0c2cc-9409ce0b] found.
Track [ CRC | V2 ] Status
01 [c85f0d96|97080a90] (039+057/104) Accurately ripped
02 [ec9aa3b1|4a37fc7c] (039+056/103) Accurately ripped
03 [6e5fa8e1|5339fcd9] (037+057/102) Accurately ripped
04 [e24dda1c|61019059] (037+056/101) Accurately ripped
05 [08620606|788a0718] (038+057/103) Accurately ripped
06 [aaea4c4b|c1787593] (038+057/103) Accurately ripped
07 [e07ebe29|289fb8c0] (038+056/102) Accurately ripped
08 [1e79bda2|6df1180d] (038+057/103) Accurately ripped
09 [124f46a2|c8d94208] (038+057/103) Accurately ripped
10 [687002d2|5a4cb469] (038+057/103) Accurately ripped
11 [afd12ba9|b5e4753d] (037+057/102) Accurately ripped
Offsetted by -676:
01 [902dc0c8] (000/104) No match (V2 was not tested)
02 [cc9edcc6] (000/103) No match (V2 was not tested)
03 [56fbd3f5] (000/102) No match (V2 was not tested)
04 [2bba40f9] (000/101) No match (V2 was not tested)
05 [e5f58164] (000/103) No match (V2 was not tested)
06 [9def6f2b] (000/103) No match (V2 was not tested)
07 [15b867b8] (000/102) No match (V2 was not tested)
08 [a1d20cc3] (000/103) No match (V2 was not tested)
09 [585356aa] (000/103) No match (V2 was not tested)
10 [93b4eb42] (000/103) No match (V2 was not tested)
11 [01e73d31] (000/102) No match (V2 was not tested)
Offsetted by -646:
01 [88e635a3] (000/104) No match (V2 was not tested)
02 [11973995] (000/103) No match (V2 was not tested)
03 [c1176c39] (000/102) No match (V2 was not tested)
04 [afd93870] (000/101) No match (V2 was not tested)
05 [f72320d5] (000/103) No match (V2 was not tested)
06 [101eec1b] (000/103) No match (V2 was not tested)
07 [85d2b52f] (000/102) No match (V2 was not tested)
08 [80b9d39c] (000/103) No match (V2 was not tested)
09 [4b5f46ce] (000/103) No match (V2 was not tested)
10 [8bba313a] (000/103) No match (V2 was not tested)
11 [080763fc] (000/102) No match (V2 was not tested)

Track Peak [ CRC32 ] [W/O NULL] [ LOG ]
– 100,0 [1A61D34A] [9986C649] CRC32
01 100,0 [88A327E1] [2E241042]
02 100,0 [BCA1D39E] [E1A88468]
03 100,0 [D2F2D4B8] [B36B633A]
04 100,0 [13225CE8] [DB11E493]
05 100,0 [D0B1CF78] [119EC549]
06 100,0 [C44646AE] [FF6B0292]
07 100,0 [28D602AE] [FF4B95DB]
08 100,0 [0F9EFCB2] [62B3457E]
09 100,0 [57E9B165] [71C0C826]
10 100,0 [ECC01877] [92E1455A]
11 77,5 [3F6296FD] [3B5C607C]


Twisted Sister: Discography & Video (1982-2011) [13CDs, 6LPs, 8DVDs]

Tracklist CD13. 2011 - Live At The Marquee Club [Rhino, R2 528073, USA]:

01. What You Don't Know (Sure Can Hurt You) (5:02)
02. Sin After Sin (3:09)
03. Bad Boys (Of Rock 'n' Roll) (5:08)
04. Destroyer (4:17)
05. Under The Blade (3:11)
06. Tear It Loose (3:04)
07. BandRap (3:22)
08. You Can't Stop Rock 'n' Roll (4:16)
09. Run For Your Life (3:36)
10. Shoot 'em Down (3:32)
11. Dee's rap (4:37)
12. It's Only Rock 'n' Roll (But I Like It) (9:32)
13. Band Introductions (5:48)
14. I Am (I'm Me) (3:13)
15. Under The Blade (6:48)
16. Let The Good Times Roll (4:19)

Exact Audio Copy V1.0 beta 3 from 29. August 2011

EAC extraction logfile from 18. May 2013, 10:02

Twisted Sister / Live At The Marquee Club [Rhino, R2 528073, USA]

Used drive : PIONEER DVD-RW DVR-K16S Adapter: 0 ID: 0

Read mode : Secure
Utilize accurate stream : Yes
Defeat audio cache : Yes
Make use of C2 pointers : No

Read offset correction : 48
Overread into Lead-In and Lead-Out : No
Fill up missing offset samples with silence : Yes
Delete leading and trailing silent blocks : No
Null samples used in CRC calculations : Yes
Used interface : Installed external ASPI interface

Used output format : User Defined Encoder
Selected bitrate : 1024 kBit/s
Quality : High
Add ID3 tag : No
Command line compressor : C:\Program Files\Exact Audio Copy\FLAC\FLAC.EXE
Additional command line options : -V -8 -T "Date=%year%" -T "Genre=%genre%" %source%


TOC of the extracted CD

Track | Start | Length | Start sector | End sector
––––––––––––––––––––––––––––-
1 | 0:00.00 | 5:01.56 | 0 | 22630
2 | 5:01.56 | 3:08.43 | 22631 | 36773
3 | 8:10.24 | 5:08.03 | 36774 | 59876
4 | 13:18.27 | 4:17.15 | 59877 | 79166
5 | 17:35.42 | 3:10.42 | 79167 | 93458
6 | 20:46.09 | 3:03.47 | 93459 | 107230
7 | 23:49.56 | 3:22.13 | 107231 | 122393
8 | 27:11.69 | 4:15.67 | 122394 | 141585
9 | 31:27.61 | 3:36.23 | 141586 | 157808
10 | 35:04.09 | 3:32.30 | 157809 | 173738
11 | 38:36.39 | 4:36.40 | 173739 | 194478
12 | 43:13.04 | 9:31.45 | 194479 | 237348
13 | 52:44.49 | 5:48.09 | 237349 | 263457
14 | 58:32.58 | 3:13.21 | 263458 | 277953
15 | 61:46.04 | 6:48.37 | 277954 | 308590
16 | 68:34.41 | 4:18.40 | 308591 | 327980


Range status and errors

Selected range

Filename C:\CD Rip By Deminbek\Twisted Sister - Live At The Marquee Club [Rhino, R2 528073, USA].wav

Peak level 100.0 %
Extraction speed 4.5 X
Range quality 99.9 %
Test CRC E2CEEB8D
Copy CRC E2CEEB8D
Copy OK

No errors occurred


AccurateRip summary

Track 1 cannot be verified as accurate (confidence 1) [3D345CAB], AccurateRip returned [7B051EF1] (AR v2)
Track 2 accurately ripped (confidence 1) [B26B51AC] (AR v1)
Track 3 cannot be verified as accurate (confidence 1) [C07DDF1A], AccurateRip returned [40CBC04A] (AR v2)
Track 4 accurately ripped (confidence 1) [A594C77C] (AR v1)
Track 5 accurately ripped (confidence 1) [05967275] (AR v1)
Track 6 accurately ripped (confidence 1) [A98444D4] (AR v1)
Track 7 accurately ripped (confidence 1) [759D9D90] (AR v1)
Track 8 accurately ripped (confidence 1) [73B67D93] (AR v1)
Track 9 cannot be verified as accurate (confidence 1) [49894114], AccurateRip returned [5CB23CC3] (AR v2)
Track 10 accurately ripped (confidence 1) [80E7C968] (AR v1)
Track 11 accurately ripped (confidence 1) [316FBB2B] (AR v1)
Track 12 accurately ripped (confidence 1) [D58BD385] (AR v1)
Track 13 accurately ripped (confidence 1) [73BDCF57] (AR v1)
Track 14 cannot be verified as accurate (confidence 1) [6C9F7515], AccurateRip returned [621B795E] (AR v2)
Track 15 cannot be verified as accurate (confidence 1) [7275AAEC], AccurateRip returned [93DC1505] (AR v2)
Track 16 accurately ripped (confidence 1) [1E937BE4] (AR v1)

11 трек(и) скопированы точно
5 трек(и) не удалось проверить на точность

Some tracks could not be verified as accurate

End of status report

–– CUETools DB Plugin V2.1.3

[CTDB TOCID: KfGQYuZRnmTcQp7WPkwI6jldhy8-] disk not present in database, Submit result: KfGQYuZRnmTcQp7WPkwI6jldhy8- has been uploaded


==== Log checksum 4701F2A23E3CA133015E219156FF878C409901BA0B892AAD0BDC8B533F068099 ====


[CUETools log; Date: 15.10.2020 15:35:28; Version: 2.1.4]
[AccurateRip ID: 0027bdbf-01e2b68c-d2111510] found.
Track [ CRC | V2 ] Status
01 [d8e42c8c|3d345cab] (0+0/2) No match
02 [b26b51ac|7dd45652] (0+3/3) Accurately ripped
03 [00732c73|c07ddf1a] (0+0/2) No match
04 [a594c77c|d2e1bd4f] (0+3/3) Accurately ripped
05 [05967275|4043853e] (0+3/3) Accurately ripped
06 [a98444d4|20d3d8e4] (0+3/3) Accurately ripped
07 [759d9d90|9d8d715a] (0+3/3) Accurately ripped
08 [73b67d93|ef43b6c0] (0+3/3) Accurately ripped
09 [1f256d60|49894114] (0+0/2) No match
10 [80e7c968|d7a7ce73] (0+3/3) Accurately ripped
11 [316fbb2b|a2160917] (0+3/3) Accurately ripped
12 [d58bd385|7fbef04a] (0+3/3) Accurately ripped
13 [73bdcf57|d8d28c16] (0+3/3) Accurately ripped
14 [8798bcc7|6c9f7515] (0+0/2) No match
15 [bd9b8316|7275aaec] (0+0/2) No match
16 [1e937be4|57504029] (0+3/3) Accurately ripped

Track Peak [ CRC32 ] [W/O NULL] [ LOG ]
– 100,0 [E2CEEB8D] [4D7D7EE3] CRC32
01 100,0 [E59B379A] [67DE615E]
02 100,0 [D1D09490] [AD24C1D5]
03 100,0 [B1C9F0AE] [7DFA4EEF]
04 100,0 [94375C5A] [21966989]
05 100,0 [03485EFD] [DACC1619]
06 100,0 [08E57E7C] [BD406718]
07 100,0 [FA90BB13] [64721231]
08 100,0 [EFB8E36A] [A48D8E3E]
09 100,0 [63CACBE3] [A1B190F4]
10 100,0 [6EFB936C] [FB28110F]
11 97,6 [2EFEFACC] [9E137223]
12 100,0 [A992B5B5] [0CB89B14]
13 89,3 [D1C0E320] [737C55E8]
14 100,0 [A49514D4] [2EA2280C]
15 100,0 [EAEA55D7] [C4F05AC3]
16 100,0 [074C66CE] [D226443C]


Twisted Sister: Discography & Video (1982-2011) [13CDs, 6LPs, 8DVDs]

Tracklist LP01. 1982 - Under The Blade (Atlantic):

01. What You Don't Know (Sure Can Hurt You)
02. Bad Boys (Of Rock'n'roll)
03. Run For Your Life
04. Sin After Sin
05. Shoot 'em Down
06. Destroyer
07. Under The Blade
08. Tear It Loose
09. Day Of The Rocker

foobar2000 1.4 / Dynamic Range Meter 1.1.1
log date: 2020-10-18 09:08:16

––––––––––––––––––––––––––––––––––––––––
Analyzed: Twisted Sister / Under The Blade
––––––––––––––––––––––––––––––––––––––––

DR Peak RMS Duration Track
––––––––––––––––––––––––––––––––––––––––
DR14 -0.03 dB -16.01 dB 4:46 01-What You Don't Know (Sure Can Hurt You)
DR14 -0.01 dB -15.66 dB 3:20 02-Bad Boys (Of Rock 'N' Roll)
DR13 0.00 dB -15.05 dB 3:29 03-Run For Your Life
DR12 -0.37 dB -14.31 dB 3:22 04-Sin After Sin
DR14 -0.41 dB -15.92 dB 3:54 05-Shoot 'Em Down
DR13 -0.35 dB -15.44 dB 4:08 06-Destroyer
DR13 -0.31 dB -15.02 dB 4:38 07-Under The Blade
DR13 0.00 dB -14.57 dB 3:09 08-Tear It Loose
DR14 0.00 dB -16.30 dB 4:55 09-Day Of The Rocker
––––––––––––––––––––––––––––––––––––––––

Number of tracks: 9
Official DR value: DR13

Samplerate: 192000 Hz
Channels: 2
Bits per sample: 24
Bitrate: 5671 kbps
Codec: FLAC
================================================================================



Tracklist LP02. 1983 - You Can't Stop Rock 'N' Roll (Back On Black):

01. The Kids Are Back
02. Like a Knife in the Back
03. Ride to Live, Live to Ride
04. I Am (I'm Me)
05. The Power and the Glory
06. We're Gonna Make It
07. I've Had Enough
08. I'll Take You Alive
09. You're Not Alone (Suzette's Song)
10. You Can't Stop Rock'n'Roll
11. One Man Woman
12. Four Barrel Heart of Love
13. Feel the Power

foobar2000 1.4 / Dynamic Range Meter 1.1.1
log date: 2020-10-18 09:09:09

––––––––––––––––––––––––––––––––––––––––
Analyzed: Twisted Sister / You Can't Stop Rock 'n' Roll
––––––––––––––––––––––––––––––––––––––––

DR Peak RMS Duration Track
––––––––––––––––––––––––––––––––––––––––
DR11 -0.40 dB -12.76 dB 3:18 01-The Kids Are Back
DR10 -0.94 dB -12.20 dB 3:05 02-Like A Knife In The Back
DR10 -0.41 dB -11.49 dB 4:04 03-Ride To Live, Live To Ride
DR10 -0.48 dB -11.84 dB 3:36 04-I Am (I'm Me)
DR10 -0.35 dB -11.20 dB 4:23 05-The Power And The Glory
DR10 -0.98 dB -12.30 dB 3:45 06-We're Gonna Make It
DR10 -0.95 dB -11.82 dB 4:02 07-I've Had Enough
DR10 -0.83 dB -12.10 dB 3:06 08-I'll Take You Alive
DR9 -1.23 dB -11.99 dB 4:04 09-You're Not Alone (Suzette's Song)
DR10 -0.83 dB -11.90 dB 4:44 10-You Can't Stop Rock 'n' Roll
DR10 -0.81 dB -13.10 dB 3:10 11-One Man Woman
DR10 -1.13 dB -12.81 dB 3:03 12-Four Barrel Heart Of Love
DR11 -1.11 dB -12.91 dB 3:14 13-Feel The Power
––––––––––––––––––––––––––––––––––––––––

Number of tracks: 13
Official DR value: DR10

Samplerate: 192000 Hz
Channels: 2
Bits per sample: 24
Bitrate: 5809 kbps
Codec: FLAC
================================================================================



Tracklist LP03. 1984 - Stay Hungry (Atlantic):

01. Stay Hungry
02. We're Not Gonna Take It
03. Burn In Hell
04. Horror-Teria (Captain Howdy / Street Justice)
05. I Wanna Rock
06. The Price
07. Don't Let Me Down
08. The Beast
09. S.M.F.

foobar2000 1.4 / Dynamic Range Meter 1.1.1
log date: 2020-10-18 09:09:43

––––––––––––––––––––––––––––––––––––––––
Analyzed: Twisted Sister / Stay Hungry
––––––––––––––––––––––––––––––––––––––––

DR Peak RMS Duration Track
––––––––––––––––––––––––––––––––––––––––
DR13 0.00 dB -14.25 dB 3:04 01-Stay Hungry
DR13 0.00 dB -15.22 dB 3:40 02-We're Not Gonna Take It
DR12 0.00 dB -15.00 dB 4:42 03-Burn In Hell
DR14 0.00 dB -15.64 dB 7:43 04-Horror-Teria (The Biginning) (Captain Howdy/Street Justice)
DR15 0.00 dB -16.43 dB 3:03 05-I Wanna Rock
DR13 -0.45 dB -16.67 dB 3:49 06-The Price
DR13 -0.06 dB -15.47 dB 4:27 07-Don't Let Me Down
DR14 -0.22 dB -16.36 dB 3:30 08-The Beast
DR13 0.00 dB -14.96 dB 3:02 09-S.M.F.
––––––––––––––––––––––––––––––––––––––––

Number of tracks: 9
Official DR value: DR13

Samplerate: 192000 Hz
Channels: 2
Bits per sample: 24
Bitrate: 5474 kbps
Codec: FLAC
================================================================================



Tracklist LP04. 1985 - Come Out And Play (Atlantic):

01. Come Out And Play
02. Leader Of The Pack
03. You Want What We Got
04. I Believe In Rock'n'roll
05. The Fire Still Burns
06. Be Chrool To Your Scuel
07. I Believe In You
08. Out On The Streets
09. Looking Out For #1
10. Kill Or Be Killed

foobar2000 1.4 / Dynamic Range Meter 1.1.1
log date: 2020-10-18 09:10:12

––––––––––––––––––––––––––––––––––––––––
Analyzed: Twisted Sister / Come Out And Play
––––––––––––––––––––––––––––––––––––––––

DR Peak RMS Duration Track
––––––––––––––––––––––––––––––––––––––––
DR14 -0.50 dB -17.78 dB 4:55 01-Come Out And Play
DR14 -0.36 dB -17.96 dB 3:44 02-Leader Of The Pack
DR14 0.00 dB -16.20 dB 3:44 03-You Want What We Got
DR14 0.00 dB -16.54 dB 4:02 04-I Believe In Rock 'N' Roll
DR12 -0.60 dB -14.70 dB 3:34 05-The Fire Still Burns
DR15 -0.12 dB -17.82 dB 3:54 06-Be Chrool To Your Scuel
DR14 0.00 dB -17.71 dB 5:22 07-I Believe In You
DR13 -0.39 dB -15.99 dB 4:27 08-Out On The Streets
DR14 0.00 dB -16.06 dB 3:07 09-Looking Out For #1
DR13 -0.77 dB -16.01 dB 2:49 10-Kill Or Be Killed
––––––––––––––––––––––––––––––––––––––––

Number of tracks: 10
Official DR value: DR14

Samplerate: 192000 Hz
Channels: 2
Bits per sample: 24
Bitrate: 5615 kbps
Codec: FLAC
================================================================================



Tracklist LP05. 1987 - Love Is For Suckers (Atlantic):

01. Wake Up (The Sleeping Giant)
02. Hot Love
03. Love Is For Suckers
04. I'm So Hot For You
05. Tonight
06. Me And The Boys
07. One Bad Habit
08. I Want This Night (To Last Forever)
09. You Are All That I Need
10. Yeah Right

foobar2000 1.4 / Dynamic Range Meter 1.1.1
log date: 2020-10-18 09:10:40

––––––––––––––––––––––––––––––––––––––––
Analyzed: Twisted Sister / Love Is For Suckers
––––––––––––––––––––––––––––––––––––––––

DR Peak RMS Duration Track
––––––––––––––––––––––––––––––––––––––––
DR13 0.00 dB -14.83 dB 4:22 01-Wake Up (The Sleeping Giant)
DR13 -0.33 dB -15.50 dB 3:33 02-Hot Love
DR12 -0.64 dB -15.01 dB 3:25 03-Love Is For Suckers
DR13 -0.31 dB -14.65 dB 4:05 04-I'm So Hot For You
DR12 -0.69 dB -14.33 dB 3:53 05-Tonight
DR12 -0.57 dB -14.82 dB 3:52 06-Me And The Boys
DR12 0.00 dB -14.60 dB 3:17 07-One Bad Habit
DR13 -0.67 dB -15.24 dB 4:19 08-I Want This Night (To Last Forever)
DR12 -1.22 dB -15.08 dB 4:16 09-You Are All That I Need
DR13 -0.33 dB -15.09 dB 3:17 10-Yeah Right
––––––––––––––––––––––––––––––––––––––––

Number of tracks: 10
Official DR value: DR13

Samplerate: 192000 Hz
Channels: 2
Bits per sample: 24
Bitrate: 5743 kbps
Codec: FLAC
================================================================================



Tracklist LP06. 2004 - Still Hungry [2LP] (Drakkar):

01. Stay Hungry
02. We're Not Gonna Take It
03. Burn In Hell
04. Horror Teria - Captain Howdy, Street Justice
05. I Wanna Rock
06. The Price
07. Don't Let Me Down
08. The Beast
09. S.M.F.
10. Never Say Never
11. Blastin' Fast & Loud
12. Come Back
13. Plastic Money
14. You Know I Cry
15. Rock'n'roll Saviors
16. Heroes Are Hard To Find

foobar2000 1.4 / Dynamic Range Meter 1.1.1
log date: 2020-10-18 09:07:47

––––––––––––––––––––––––––––––––––––––––
Analyzed: Twisted Sister / Still Hungry
––––––––––––––––––––––––––––––––––––––––

DR Peak RMS Duration Track
––––––––––––––––––––––––––––––––––––––––
DR11 -0.10 dB -12.51 dB 3:14 01-Stay Hungry
DR11 -0.31 dB -12.96 dB 4:37 02-We're Not Gonna Take It
DR12 0.00 dB -13.02 dB 5:36 03-Burn In Hell
DR11 -0.37 dB -13.05 dB 8:42 04-Horror Teria
DR11 -0.03 dB -12.42 dB 3:14 05-I Wanna Rock
DR11 -0.55 dB -12.89 dB 4:08 06-The Price
DR10 -0.94 dB -12.25 dB 4:45 07-Don't Let Me Down
DR11 -0.61 dB -12.55 dB 3:26 08-The Beast
DR12 0.00 dB -13.10 dB 3:28 09-S.M.F.
DR10 -0.76 dB -12.23 dB 2:18 10-Never Say Never
DR11 -0.31 dB -12.31 dB 3:01 11-Blastin' Fast & Loud
DR11 -0.19 dB -12.77 dB 6:25 12-Come Back
DR11 -0.26 dB -12.62 dB 4:05 13-Plastic Money
DR11 -0.15 dB -12.77 dB 4:21 14-You Know I Cry
DR11 -0.35 dB -12.43 dB 5:05 15-Rock N Roll Saviours
DR12 0.00 dB -13.61 dB 4:56 16-Heroes Are Hard To Find
––––––––––––––––––––––––––––––––––––––––

Number of tracks: 16
Official DR value: DR11

Samplerate: 192000 Hz
Channels: 2
Bits per sample: 24
Bitrate: 5687 kbps
Codec: FLAC
================================================================================




Original ripper: Oleg-Leshiy
Original format: 24/192
Vinyl Condition: Near Mint / Mint
Direct Drive Turntable: Dual 505-4, Benz-Micro Glider SH
Amplifier: Tube-Preamp
ADC: Motu mk3

Twisted Sister: Discography & Video (1982-2011) [13CDs, 6LPs, 8DVDs]

Tracklist DVD01. 1984 - Uncut Live At San Bernadino:

1. Introduction
2. The Kids Are Back
3. We're Not Gonna Take It (Music Video)
4. I Wanna Rock
5. Under The Blade
6. The Beast
7. You Can't Stop Rock'n'Roll (Music Video)
8. The Price
9. Stay Hungry
10. Burn In Hell
11. S.M.F.
12. I Wanna Rock

Title: DVD01. 1984 - Uncut Live At San Bernadino
Size: 3.28 Gb ( 3 442 578,00 KBytes ) - DVD-5
Enabled regions: 1, 2, 3, 4, 5, 6, 7, 8

VTS_01 :
Play Length: 00:59:38
Video: NTSC 4:3 (720x480) VBR
Audio:
Not specified (Dolby AC3, 2 ch)


Twisted Sister: Discography & Video (1982-2011) [13CDs, 6LPs, 8DVDs]

Twisted Sister: Discography & Video (1982-2011) [13CDs, 6LPs, 8DVDs]

Twisted Sister: Discography & Video (1982-2011) [13CDs, 6LPs, 8DVDs]

* * * * *

Twisted Sister: Discography & Video (1982-2011) [13CDs, 6LPs, 8DVDs]

Tracklist DVD02. 2005 - Live At Wacken - The Reunion:

1. What you don't know (Sure can hurt you) (Intro) 1:50
2. In the beginning
3. The final show… 1987 (Interviews)
4. The kids are back
5. Stay hungry
6. The speaks reunion (Interviews)
7. A night for Jason (Interviews)
8. Destroyer
9. Like a knife in the back
10. VH1 behind the music (Interviews)
11. The New York Steel benefit (Interviews)
12. Under the blade
13. Old school returns (Interviews)
14. You can't stop rock 'n' roll
15. The fire still burns
16. The U.S.O. Tour of South Korea April 2003 (Interviews)
17. Shoot 'em down
18. We're not gonna take it
19. Festivals (Interviews)
20. The price
21. Reflections (Interviews)
22. Burn in hell
23. I wanna rock
24. Intro of band S.M.F.
25. Credits

Title: DVD02. 2005 - Live At Wacken
Size: 4.13 Gb ( 4 326 520,00 KBytes ) - DVD-5
Enabled regions: 1, 2, 3, 4, 5, 6, 7, 8

VTS_01 :
Play Length: 01:45:16+00:04:35
Video: PAL 4:3 (720x576) VBR
Audio:
English (Dolby AC3, 2 ch)
English (Dolby AC3, 6 ch)


Twisted Sister: Discography & Video (1982-2011) [13CDs, 6LPs, 8DVDs]

Twisted Sister: Discography & Video (1982-2011) [13CDs, 6LPs, 8DVDs]

Twisted Sister: Discography & Video (1982-2011) [13CDs, 6LPs, 8DVDs]

* * * * *

Twisted Sister: Discography & Video (1982-2011) [13CDs, 6LPs, 8DVDs]

Tracklist DVD03. 2007 - A Twisted Christmas Live:

01. Have Yourself A Merry Little Christmas
02. Shoot 'Em Down
03. I Saw Mommy Kissing Santa Claus
04. The Fire Still Burns
05. You Can't Stop Rock & Roll
06. White Christmas
07. The Price
08. Oh Come All Ye Faithful
09. I'll Be Home For Christmas
10. Burn In Hell
11. Silver Bells
12. I Wanna Rock
13. Heavy Metal Christmas (The Twelve Days Of Christmas)
14. We're Not Gonna Take It

Title: DVD03. 2007 - A Twisted Christmas Live
Size: 3.34 Gb ( 3 503 286,00 KBytes ) - DVD-5
Enabled regions: 1, 2, 3, 4, 5, 6, 7, 8

VTS_01 :
Play Length: 01:07:39+00:02:13+00:05:59+00:01:14+00:06:23
Video: NTSC 4:3 (720x480) VBR
Audio:
English (Dolby AC3, 2 ch)

VTS_02 :
Play Length: 00:06:33
Video: NTSC 16:9 (720x480) VBR, Auto Letterboxed
Audio:
English (Dolby AC3, 2 ch)


Twisted Sister: Discography & Video (1982-2011) [13CDs, 6LPs, 8DVDs]

Twisted Sister: Discography & Video (1982-2011) [13CDs, 6LPs, 8DVDs]

Twisted Sister: Discography & Video (1982-2011) [13CDs, 6LPs, 8DVDs]

* * * * *

Twisted Sister: Discography & Video (1982-2011) [13CDs, 6LPs, 8DVDs]

Tracklist DVD04. 2007 - Video Years:

It's Only Rock 'n' Roll (But I Like It) [TV Performance]
You Can't Stop Rock'n'Roll [Twisted Videos]
We're Not Gonna Take It [Twisted Videos]
I Wanna Rock [Twisted Videos]
The Price [Twisted Videos]
Leader Of The Pack [Twisted Videos]
Be Chrool To Your Scuel [Twisted Videos]
Hot Love (1987) [Twisted Videos]
Stay Hungry (1984) [Twisted Live]
The Kids Are Back [Twisted Live]
We're Not Gonna Take It [Twisted Live]
I Wanna Rock [Twisted Live]
Under The Blade [Twisted Live]
The Beast [Twisted Live]
You Can't Stop Rock'n'Roll [Twisted Live]
The Price [Twisted Live]
Stay Hungry [Twisted Live]
Burn In Hell [Twisted Live]
S.M.F [Twisted Live]
Dee Snider [Bonus Interviews]
Jay Jay French[Bonus Interviews]
Mark Mendoza [Bonus Interviews]
Aj Pero [Bonus Interviews]
Eddie Ojeda [Bonus Interviews]
Joe Gerber [Bonus Interviews]
Phil Carson and Lemmy Kilminster [Bonus Interviews]

Title: DVD04. 2007 - Video Years
Size: 6.16 Gb ( 6 458 972,00 KBytes ) - DVD-9
Enabled regions: 1, 2, 3, 4, 5, 6, 7, 8

VTS_01 :
Play Length: 00:00:03
Video: NTSC 4:3 (720x480) VBR
Audio:
English (Dolby AC3, 2 ch)
English (Dolby AC3, 2 ch)

VTS_02 :
Play Length: 00:00:00
Video: NTSC 4:3 (720x480) VBR
Audio:
English (Dolby AC3, 2 ch)
English (Dolby AC3, 2 ch)

VTS_03 :
Play Length: 00:06:30+{00:06:30}
Video: NTSC 4:3 (720x480) VBR
Audio:
English (Dolby AC3, 2 ch)
English (Dolby AC3, 2 ch)

VTS_04 :
Play Length: 00:11:22+{00:11:22}+{00:11:22}
Video: NTSC 4:3 (720x480) VBR
Audio:
English (Dolby AC3, 2 ch)
English (Dolby AC3, 6 ch)

VTS_05 :
Play Length: 00:03:39+{00:03:39}
Video: NTSC 4:3 (720x480) VBR
Audio:
English (Dolby AC3, 2 ch)
English (Dolby AC3, 2 ch)

VTS_06 :
Play Length: 00:04:44+{00:04:44}+{00:04:44}
Video: NTSC 4:3 (720x480) VBR
Audio:
English (Dolby AC3, 2 ch)
English (Dolby AC3, 6 ch)

VTS_07 :
Play Length: 00:07:21+{00:07:21}
Video: NTSC 4:3 (720x480) VBR
Audio:
English (Dolby AC3, 2 ch)
English (Dolby AC3, 2 ch)

VTS_08 :
Play Length: 00:04:31+{00:04:31}+{00:04:31}
Video: NTSC 4:3 (720x480) VBR
Audio:
English (Dolby AC3, 2 ch)
English (Dolby AC3, 6 ch)

VTS_09 :
Play Length: 00:04:04+{00:04:04}
Video: NTSC 4:3 (720x480) VBR
Audio:
English (Dolby AC3, 2 ch)
English (Dolby AC3, 2 ch)

VTS_10 :
Play Length: 00:04:33+{00:04:33}+{00:04:33}
Video: NTSC 4:3 (720x480) VBR
Audio:
English (Dolby AC3, 2 ch)
English (Dolby AC3, 6 ch)

VTS_11 :
Play Length: 00:02:56+{00:02:56}
Video: NTSC 4:3 (720x480) VBR
Audio:
English (Dolby AC3, 2 ch)
English (Dolby AC3, 2 ch)

VTS_12 :
Play Length: 00:03:44+{00:03:44}+{00:03:44}
Video: NTSC 4:3 (720x480) VBR
Audio:
English (Dolby AC3, 2 ch)
English (Dolby AC3, 6 ch)

VTS_13 :
Play Length: 00:05:05+{00:05:05}
Video: NTSC 4:3 (720x480) VBR
Audio:
English (Dolby AC3, 2 ch)
English (Dolby AC3, 2 ch)

VTS_14 :
Play Length: 00:03:53+{00:03:53}+{00:03:53}
Video: NTSC 4:3 (720x480) VBR
Audio:
English (Dolby AC3, 2 ch)
English (Dolby AC3, 6 ch)

VTS_15 :
Play Length: 00:02:43+{00:02:43}
Video: NTSC 4:3 (720x480) VBR
Audio:
English (Dolby AC3, 2 ch)
English (Dolby AC3, 2 ch)

VTS_16 :
Play Length: 00:06:12+{00:06:12}+{00:06:12}
Video: NTSC 4:3 (720x480) VBR
Audio:
English (Dolby AC3, 2 ch)
English (Dolby AC3, 6 ch)

VTS_17 :
Play Length: 00:03:16+{00:03:16}
Video: NTSC 4:3 (720x480) VBR
Audio:
English (Dolby AC3, 2 ch)
English (Dolby AC3, 2 ch)

VTS_18 :
Play Length: 00:04:17+{00:04:17}+{00:04:17}
Video: NTSC 4:3 (720x480) VBR
Audio:
English (Dolby AC3, 2 ch)
English (Dolby AC3, 6 ch)

VTS_19 :
Play Length: 00:04:05+{00:04:05}
Video: NTSC 4:3 (720x480) VBR
Audio:
English (Dolby AC3, 2 ch)
English (Dolby AC3, 2 ch)

VTS_20 :
Play Length: 00:50:38+{00:50:38}
Video: NTSC 4:3 (720x480) VBR
Audio:
English (Dolby AC3, 2 ch)
English (Dolby AC3, 6 ch)


Twisted Sister: Discography & Video (1982-2011) [13CDs, 6LPs, 8DVDs]

Twisted Sister: Discography & Video (1982-2011) [13CDs, 6LPs, 8DVDs]

Twisted Sister: Discography & Video (1982-2011) [13CDs, 6LPs, 8DVDs]

* * * * *

Twisted Sister: Discography & Video (1982-2011) [13CDs, 6LPs, 8DVDs]

Tracklist DVD05. 2008 - Live at the Astoria:

1. What You Don't Know (Sure Can Hurt You)
02. The Kids Are Back
03. Under The Blade
04. Destroyer
05. Like A Knife In The Back
06. Burn In Hell
07. Ride To Live
08. Shoot 'Em Down
09. You Can't Stop Rock N' Roll
10. The Fire Still Burns
11. We're Not Gonna Take It
12. The Price
13. I Am, I'm Me
14. I Wanna Rock
15. Come Out & Play
16. S.F.M

Title: DVD05. 2008 - Live at the Astoria
Size: 5.47 Gb ( 5 734 896,00 KBytes ) - DVD-9
Enabled regions: 1, 2, 3, 4, 5, 6, 7, 8

VTS_01 :
Play Length: 00:00:01
Video: NTSC 4:3 (720x480) VBR
Audio:
English (Dolby AC3, 2 ch)

VTS_02 :
Play Length: 00:00:01
Video: NTSC 4:3 (720x480) VBR
Audio:
English (Dolby AC3, 2 ch)

VTS_03 :
Play Length: 00:00:15
Video: NTSC 4:3 (720x480) VBR
Audio:
English (Dolby AC3, 2 ch)

VTS_04 :
Play Length: 01:37:20
Video: NTSC 4:3 (720x480) VBR
Audio:
English (LinearPCM, 2 ch)

VTS_05 :
Play Length: 00:00:31
Video: NTSC 4:3 (720x480) VBR
Audio:
English (LinearPCM, 2 ch)


Twisted Sister: Discography & Video (1982-2011) [13CDs, 6LPs, 8DVDs]

Twisted Sister: Discography & Video (1982-2011) [13CDs, 6LPs, 8DVDs]

Twisted Sister: Discography & Video (1982-2011) [13CDs, 6LPs, 8DVDs]

* * * * *

Twisted Sister: Discography & Video (1982-2011) [13CDs, 6LPs, 8DVDs]

Tracklist DVD06. 2011 - Double Live DVD1:

North Stage Theater 1982
1) What You Don't Know (Sure Can Hurt You)
2) Destroyer
3) Tear It Loose
4) Bad Boys Of Rock 'n' Roll
5) Lady's Boy
6) Leader Of The Pack
7) Under The Blade
8) Shoot 'Em Down
9) Sin After Sin
10) I'll Never Grow Up Now
11) You Can't Stop Rock 'n' Roll
12) You Know I Cry
13) It's Only Rock 'n' Roll (But I Like It)
14) Rock N Roll Saviours

Title: DVD06. 2011 - Double Live DVD1
Size: 4.11 Gb ( 4 312 964,00 KBytes ) - DVD-5
Enabled regions: 1, 2, 3, 4, 5, 6, 7, 8

VTS_01 :
Play Length: 01:21:12+{01:21:12}
Video: NTSC 4:3 (720x480) VBR
Audio:
English (Dolby AC3, 2 ch)
English (Dolby AC3, 6 ch)

VTS_02 :
Play Length: 00:00:12
Video: NTSC 4:3 (720x480) VBR

VTS_03 :
Play Length: 00:00:12
Video: NTSC 4:3 (720x480) VBR

VTS_04 :
Play Length: 00:12:23
Video: NTSC 16:9 (720x480) VBR, Auto Letterboxed
Audio:
English (Dolby AC3, 2 ch)

VTS_05 :
Play Length: 00:00:15
Video: NTSC 16:9 (720x480) VBR, Auto Letterboxed
Audio:
English (Dolby AC3, 2 ch)


Tracklist DVD07. 2011 - Double Live DVD2:

New York Steel 2001
1) What You Don't Know (Sure Can Hurt You)
2) The Kids Are Back
3) Stay Hungry
4) Burn In Hell
5) You Can't Stop Rock 'n' Roll
6) Under The Blade
7) Shoot 'Em Down
8) Come Back
9) You Know I Cry
10) I Wanna Rock
11) We're Not Gonna Take It
12) The Price
13) S.M.F.

Title: DVD07. 2011 - Double Live DVD2
Size: 5.24 Gb ( 5 498 134,00 KBytes ) - DVD-9
Enabled regions: 1, 2, 3, 4, 5, 6, 7, 8

VTS_01 :
Play Length: 01:09:08+{01:09:08}
Video: NTSC 4:3 (720x480) VBR
Audio:
English (Dolby AC3, 2 ch)
English (Dolby AC3, 6 ch)

VTS_02 :
Play Length: 00:00:12
Video: NTSC 4:3 (720x480) VBR

VTS_03 :
Play Length: 00:00:12
Video: NTSC 4:3 (720x480) VBR

VTS_04 :
Play Length: 00:37:17
Video: NTSC 16:9 (720x480) VBR, Auto Letterboxed
Audio:
English (Dolby AC3, 2 ch)

VTS_05 :
Play Length: 00:01:25
Video: NTSC 4:3 (720x480) VBR
Audio:
English (Dolby AC3, 2 ch)

VTS_06 :
Play Length: 00:00:15
Video: NTSC 16:9 (720x480) VBR, Auto Letterboxed
Audio:
English (Dolby AC3, 2 ch)


Twisted Sister: Discography & Video (1982-2011) [13CDs, 6LPs, 8DVDs]

Twisted Sister: Discography & Video (1982-2011) [13CDs, 6LPs, 8DVDs]

Twisted Sister: Discography & Video (1982-2011) [13CDs, 6LPs, 8DVDs]

* * * * *

Twisted Sister: Discography & Video (1982-2011) [13CDs, 6LPs, 8DVDs]

Tracklist DVD08. 2011 - Under The Blade:

01. What You Don’t Know (Sure Can Hurt You)
02. Sin After Sin
03. Bad Boys (Of Rock ‘n’ Roll)
04. Destroyer
05. Shoot ‘Em Down
06. Tear It Loose
07. Under The Blade
08. It’s Only Rock ‘n’ Roll

Interviews:
Remembering: The Reading Festival
Living and dining in the UK
The sound of "Under The Blade"
The recording of "Under The Blade"
Final thoughts: The Reading Festival

Title: DVD08. 2011 - Under The Blade
Size: 3.88 Gb ( 4 064 816,00 KBytes ) - DVD-5
Enabled regions: 1, 2, 3, 4, 5, 6, 7, 8

VTS_01 :
Play Length: 00:00:27
Video: NTSC 4:3 (720x480) VBR
Audio:
English (Dolby AC3, 2 ch)

VTS_02 :
Play Length: 00:44:48
Video: NTSC 4:3 (720x480) VBR
Audio:
English (Dolby AC3, 2 ch)

VTS_03 :
Play Length: 00:41:02
Video: NTSC 16:9 (720x480) VBR, Auto Letterboxed
Audio:
English (Dolby AC3, 2 ch)


Twisted Sister: Discography & Video (1982-2011) [13CDs, 6LPs, 8DVDs]

Twisted Sister: Discography & Video (1982-2011) [13CDs, 6LPs, 8DVDs]

Twisted Sister: Discography & Video (1982-2011) [13CDs, 6LPs, 8DVDs]

All thanks go to the original releasers

Twisted Sister in my Blog

Download Twisted Sister: Discography & Video (1982-2011):