Subcategories

Bennie Green - Back On The Scene (1958) {Blue Note Japan TOCJ-1587 rel 1997}

Posted By: ruskaval
Bennie Green - Back On The Scene (1958) {Blue Note Japan TOCJ-1587 rel 1997}

Bennie Green - Back On The Scene (1958) {Blue Note Japan TOCJ-1587 rel 1997}
EAC rip (secure mode) | FLAC (tracks)+CUE+LOG -> 156 Mb | MP3 @320 -> 89 Mb
Full Artwork @ 300 dpi (jpg) -> 50 Mb | 5% repair rar
© 1958, 1997 Blue Note / Toshiba-EMI Japan | TOCJ-1587 | Mono
Jazz / Bop / Trombone

It's evident from the opening pair of Latin-flavored performances that Back on the Scene is one of Bennie Green's most diverse efforts. Green's warm, supple tone and fondness for swinging, bop-influenced mainstream jazz and jump blues hasn't disappeared; he's just found new facets in his style. The infectious Latin rhythms on Cole Porter's "I Love You" and "Melba's Mood" are welcome, as is "You're Mine You," which showcases Green's sensitive ballad style. Reviving the standard "Just Friends" emphasizes the trombonist's ties to big band and bop, particularly through tenor saxophonist Charlie Rouse's strong solos. The jumping "Bennie Plays the Blues" and "Green Street" are also terrific, finding Green, Rouse and pianist Joe Knight trading full-bodied solos. Even with this vast array of styles, Back on the Scene retains all the good-natured spirit and humor of his earlier Prestige albums.
Bennie Green - Back On The Scene (1958) {Blue Note Japan TOCJ-1587 rel 1997}


Personnel
Bennie Green - trombone
Charlie Rouse - tenor saxophone
Joe Knight - piano
George Tucker - bass
Louis Hayes - drums

Recorded at The Van Gelder Studio, New Jersey on March 23, 1958.
HSE2088 (20bit 88.2kHz Mastering)


Track Listing
01 - I Love You
02 - Melba's Mood
03 - Just Friends
04 - You're Mine, You
05 - Bennie Plays The Blues
06 - Green Street

EAC extraction logfile from 12. February 2011, 23:09 for CD
Bennie Green / Back On The Scene

Used drive : HP DVD Writer 1170d Adapter: 1 ID: 0
Read mode : Secure with NO C2, accurate stream, disable cache
Read offset correction : 6
Overread into Lead-In and Lead-Out : No

Used output format : C:\Program Files\FLAC\flac.exe (User Defined Encoder)
128 kBit/s
Additional command line options : -8 -V -T "ARTIST=%a" -T "TITLE=%t" -T "ALBUM=%g" -T "DATE=%y" -T "TRACKNUMBER=%n" -T "TOTALTRACKS=%x" -T "GENRE=%m" -T "ALBUM ARTIST=%v" -T "ALBUMARTIST=%v" -T "COMMENT=EAC V0.99 prebeta 4, Secure Mode,

Other options :
Fill up missing offset samples with silence : Yes
Delete leading and trailing silent blocks : No
Installed external ASPI interface


Track 1
Filename C:\Documents and Settings\bennie\01 - I Love You.wav

Pre-gap length 0:00:02.00

Peak level 97.4 %
Track quality 100.0 %
Test CRC 2F7875FA
Copy CRC 2F7875FA
Copy OK

Track 2
Filename C:\Documents and Settings\bennie\02 - Melba's Mood.wav

Pre-gap length 0:00:03.00

Peak level 83.5 %
Track quality 100.0 %
Test CRC 584799B9
Copy CRC 584799B9
Copy OK

Track 3
Filename C:\Documents and Settings\bennie\03 - Just Friends.wav

Pre-gap length 0:00:02.24

Peak level 99.7 %
Track quality 100.0 %
Test CRC 2FFE8386
Copy CRC 2FFE8386
Copy OK

Track 4
Filename C:\Documents and Settings\bennie\04 - You're Mine, You.wav

Pre-gap length 0:00:02.20

Peak level 81.4 %
Track quality 100.0 %
Test CRC F54936A8
Copy CRC F54936A8
Copy OK

Track 5
Filename C:\Documents and Settings\bennie\05 - Bennie Plays The Blues.wav

Pre-gap length 0:00:02.29

Peak level 89.8 %
Track quality 100.0 %
Test CRC E76A7C92
Copy CRC E76A7C92
Copy OK

Track 6
Filename C:\Documents and Settings\bennie\06 - Green Street.wav

Pre-gap length 0:00:02.10

Peak level 87.0 %
Track quality 100.0 %
Test CRC C226A560
Copy CRC C226A560
Copy OK

No errors occured


End of status report


Bennie Green - Back On The Scene (1958) {Blue Note Japan TOCJ-1587 rel 1997}

Bennie Green - Back On The Scene (1958) {Blue Note Japan TOCJ-1587 rel 1997}



===