Subcategories

Freddie Hubbard - Minor Mishap (1961) {Black Lion BLCD760122 rel 1989}

Posted By: ruskaval
Freddie Hubbard - Minor Mishap (1961) {Black Lion BLCD760122 rel 1989}

Freddie Hubbard - Minor Mishap (1961) {Black Lion BLCD760122 rel 1989}
EAC rip (secure mode) | FLAC (tracks)+CUE+LOG -> 368 Mb | MP3 @320 -> 160 Mb
Full Artwork @ 300 dpi (jpg) -> 27 Mb | 5% repair rar
© 1961, 1989 Black Lion / Phonoco | BLCD760122
Jazz / Hard Bop / Trumpet

This is one of Freddie Hubbard's more obscure sessions of the 1960s. Actually, it was originally led by the forgotten trombonist Willie Wilson (who died in 1963). The 23-year-old trumpeter is teamed with Wilson, baritonist Pepper Adams, and the Duke Pearson Trio (with bassist Thomas Howard and drummer Lex Humphries) for originals by Wilson, Pearson, Adams, Donald Byrd, and Tommy Flanagan in addition to two standards that feature the trombonist. This is an excellent hard bop date and well worth picking up by straight-ahead jazz fans.


Personnel
Pepper Adams – sax (baritone)
Thomas Howard – bass
Freddie Hubbard – horn, trumpet
Lex Humphries – drums
Duke Pearson – piano
Willie Wilson – trombone

Recorded at Bell Sound Studios, New York City
2nd August 1961


Track LIsting
01 - Minor Mishap (take 3)
02 - Minor Mishap (take 4)
03 - Blues For Alvina (take 3)
04 - Blues For Alvina (take 4)
05 - The Nearness Of You (take 3)
06 - Number Five (take 3)
07 - Number Five (take 5)
08 - Lex (take 2)
09 - Lex (take 4)
10 - Time After Time (take 2)
11 - Apothegm (take 6)
12 - Apothegm (take 14)

EAC extraction logfile from 15. February 2011, 0:50 for CD
Freddie Hubbard / Minor Mishap

Used drive : HP DVD Writer 1170d Adapter: 1 ID: 2
Read mode : Secure with NO C2, accurate stream, disable cache
Read offset correction : 6
Overread into Lead-In and Lead-Out : No

Used output format : C:\Program Files\FLAC\flac.exe (User Defined Encoder)
128 kBit/s
Additional command line options : -8 -V -T "ARTIST=%a" -T "TITLE=%t" -T "ALBUM=%g" -T "DATE=%y" -T "TRACKNUMBER=%n" -T "TOTALTRACKS=%x" -T "GENRE=%m" -T "ALBUM ARTIST=%v" -T "ALBUMARTIST=%v" -T "COMMENT=EAC V0.99 prebeta 4, Secure Mode,

Other options :
Fill up missing offset samples with silence : Yes
Delete leading and trailing silent blocks : No
Installed external ASPI interface


Track 1
Filename C:\Documents and Settings\fredhub\01 - Minor Mishap (take 3).wav

Pre-gap length 0:00:02.00

Peak level 68.5 %
Track quality 100.0 %
Test CRC 3E8CF256
Copy CRC 3E8CF256
Copy OK

Track 2
Filename C:\Documents and Settings\fredhub\02 - Minor Mishap (take 4).wav

Pre-gap length 0:00:04.04

Peak level 66.2 %
Track quality 100.0 %
Test CRC 14D2BAE6
Copy CRC 14D2BAE6
Copy OK

Track 3
Filename C:\Documents and Settings\fredhub\03 - Blues For Alvina (take 3).wav

Pre-gap length 0:00:03.53

Peak level 90.9 %
Track quality 99.9 %
Test CRC 138409A7
Copy CRC 138409A7
Copy OK

Track 4
Filename C:\Documents and Settings\fredhub\04 - Blues For Alvina (take 4).wav

Pre-gap length 0:00:03.93

Peak level 85.8 %
Track quality 100.0 %
Test CRC 6CC017FD
Copy CRC 6CC017FD
Copy OK

Track 5
Filename C:\Documents and Settings\fredhub\05 - The Nearness Of You (take 3).wav

Pre-gap length 0:00:04.36

Peak level 79.3 %
Track quality 100.0 %
Test CRC 26A1DD10
Copy CRC 26A1DD10
Copy OK

Track 6
Filename C:\Documents and Settings\fredhub\06 - Number Five (take 3).wav

Pre-gap length 0:00:04.00

Peak level 79.4 %
Track quality 100.0 %
Test CRC D82CF4F9
Copy CRC D82CF4F9
Copy OK

Track 7
Filename C:\Documents and Settings\fredhub\07 - Number Five (take 5).wav

Pre-gap length 0:00:03.73

Peak level 89.4 %
Track quality 100.0 %
Test CRC 4F9D0F91
Copy CRC 4F9D0F91
Copy OK

Track 8
Filename C:\Documents and Settings\fredhub\08 - Lex (take 2).wav

Pre-gap length 0:00:04.17

Peak level 71.8 %
Track quality 100.0 %
Test CRC CD7121DC
Copy CRC CD7121DC
Copy OK

Track 9
Filename C:\Documents and Settings\fredhub\09 - Lex (take 4).wav

Pre-gap length 0:00:04.57

Peak level 91.5 %
Track quality 100.0 %
Test CRC D1B44204
Copy CRC D1B44204
Copy OK

Track 10
Filename C:\Documents and Settings\fredhub\10 - Time After Time (take 2).wav

Pre-gap length 0:00:03.65

Peak level 50.9 %
Track quality 100.0 %
Test CRC 3585AB24
Copy CRC 3585AB24
Copy OK

Track 11
Filename C:\Documents and Settings\fredhub\11 - Apothegm (take 6).wav

Pre-gap length 0:00:03.57

Peak level 84.6 %
Track quality 100.0 %
Test CRC 4822E3FF
Copy CRC 4822E3FF
Copy OK

Track 12
Filename C:\Documents and Settings\fredhub\12 - Apothegm (take 14).wav

Pre-gap length 0:00:03.86

Peak level 93.0 %
Track quality 99.9 %
Test CRC 079DA847
Copy CRC 079DA847
Copy OK

No errors occured


End of status report


Freddie Hubbard - Minor Mishap (1961) {Black Lion BLCD760122 rel 1989}

Freddie Hubbard - Minor Mishap (1961) {Black Lion BLCD760122 rel 1989}


see more Freddie Hubbard…


===