Subcategories

Lokua Kanza - 3 (1998) {Kanisa--RCA 74321628462}

Posted By: ruskaval
Lokua Kanza - 3 (1998) {Kanisa--RCA 74321628462}

Lokua Kanza - 3 (1998) {Kanisa–RCA 74321628462}
EAC rip (secure mode) | FLAC (tracks)+CUE+LOG -> 278 Mb | MP3 @320 -> 102 Mb
Full Artwork @ 300 dpi (png) -> 67 Mb | 5% repair rar
© 1998 Kanisa / RCA / BMG | 74321628462
World Music / Pop / African / Soft Rock / Worldbeat

A great opportunity to discover the unusual career of this artist with discreet and bewitching charm. Lokua Kanza will have been slow to take his place on the world scene, undoubtedly because of an eclecticism that we could have seen as indecision. But precisely, the young man with the frail voice likes nothing more than to kiss the whole world. So he lets his heart speak and gives life in his own way to songs he loves above all.

As its title indicates, this disc was preceded by 2 albums which allowed Lokua Kanza to find more precisely its direction. And him to allow himself here a title of Nathalie Merchant, the North American muse of the new folk. Should we add then that "Don't Tell Me", the song he remembers, finds another life in its stamp? It thus appears quite as natural to hear Lokua Kanza adopt (adapt?) A composition of the legendary Lamont Dozier (major figure of the Tamla sound) with "More Than Just Sex". Last option for this 3, the (lack of) choice of language, because Lokua never wanted to reserve a single idiom. As for his music. And to glean over the compositions the English and French words, and those of Lingala and Swahili. One of the artist's freshest and most youthful albums.
Lokua Kanza - 3 (1998) {Kanisa--RCA 74321628462}


Track Listing
01 - Don't Tell Me
02 - I Believe In You
03 - Zamba
04 - More Than Just Sex
05 - Olimbisa Ngai
06 - You'll Never Know
07 - Meu Amor
08 - Be Yourself
09 - Kuetu Mbali
10 - Moninga
11 - Milelo
12 - Kimia

Exact Audio Copy V1.0 beta 1 from 15. November 2010

EAC extraction logfile from 1. July 2013, 18:52

Lokua Kanza / 3

Used drive : HL-DT-STDVD-ROM GDR8161B Adapter: 0 ID: 1

Read mode : Secure
Utilize accurate stream : Yes
Defeat audio cache : Yes
Make use of C2 pointers : No

Read offset correction : 102
Overread into Lead-In and Lead-Out : No
Fill up missing offset samples with silence : Yes
Delete leading and trailing silent blocks : No
Null samples used in CRC calculations : Yes
Used interface : Native Win32 interface for Win NT & 2000
Gap handling : Appended to previous track

Used output format : User Defined Encoder
Selected bitrate : 768 kBit/s
Quality : High
Add ID3 tag : No
Command line compressor : C:\Program Files (x86)\Exact Audio Copy\FLAC\FLAC.EXE
Additional command line options : -8 -V -T "ARTIST=%a" -T "TITLE=%t" -T "ALBUM=%g" -T "DATE=%y" -T "TRACKNUMBER=%n" -T "TOTALTRACKS=%x" -T "GENRE=%m" -T "ALBUMARTIST=%v" -T "ALBUM ARTIST=%v" -T "COMMENT=EAC Secure Mode, Test & Copy, AccurateRip, FLAC -8" %s


TOC of the extracted CD

Track | Start | Length | Start sector | End sector
––––––––––––––––––––––––––––-
1 | 0:00.00 | 3:34.26 | 0 | 16075
2 | 3:34.26 | 3:36.54 | 16076 | 32329
3 | 7:11.05 | 3:46.64 | 32330 | 49343
4 | 10:57.69 | 3:54.10 | 49344 | 66903
5 | 14:52.04 | 3:25.29 | 66904 | 82307
6 | 18:17.33 | 3:50.48 | 82308 | 99605
7 | 22:08.06 | 3:37.12 | 99606 | 115892
8 | 25:45.18 | 4:06.69 | 115893 | 134411
9 | 29:52.12 | 3:55.73 | 134412 | 152109
10 | 33:48.10 | 3:48.52 | 152110 | 169261
11 | 37:36.62 | 1:52.47 | 169262 | 177708
12 | 39:29.34 | 3:41.41 | 177709 | 194324


Track 1

Filename D:\0_UPL\Lokua Kanza - 3\01 - Don't Tell Me.wav

Pre-gap length 0:00:02.00

Peak level 98.3 %
Extraction speed 3.8 X
Track quality 100.0 %
Test CRC A059FBD2
Copy CRC A059FBD2
Track not present in AccurateRip database
Copy OK

Track 2

Filename D:\0_UPL\Lokua Kanza - 3\02 - I Believe In You.wav

Pre-gap length 0:00:01.69

Peak level 98.3 %
Extraction speed 4.2 X
Track quality 100.0 %
Test CRC 76F729D2
Copy CRC 76F729D2
Track not present in AccurateRip database
Copy OK

Track 3

Filename D:\0_UPL\Lokua Kanza - 3\03 - Zamba.wav

Pre-gap length 0:00:01.69

Peak level 98.3 %
Extraction speed 4.6 X
Track quality 100.0 %
Test CRC E955A37B
Copy CRC E955A37B
Track not present in AccurateRip database
Copy OK

Track 4

Filename D:\0_UPL\Lokua Kanza - 3\04 - More Than Just Sex.wav

Pre-gap length 0:00:04.08

Peak level 98.3 %
Extraction speed 4.9 X
Track quality 100.0 %
Test CRC 74C5A5E5
Copy CRC 74C5A5E5
Track not present in AccurateRip database
Copy OK

Track 5

Filename D:\0_UPL\Lokua Kanza - 3\05 - Olimbisa Ngai.wav

Pre-gap length 0:00:02.02

Peak level 98.3 %
Extraction speed 5.1 X
Track quality 100.0 %
Test CRC 3C502138
Copy CRC 3C502138
Track not present in AccurateRip database
Copy OK

Track 6

Filename D:\0_UPL\Lokua Kanza - 3\06 - You'll Never Know.wav

Pre-gap length 0:00:01.69

Peak level 93.6 %
Extraction speed 5.5 X
Track quality 100.0 %
Test CRC D7FA1E82
Copy CRC D7FA1E82
Track not present in AccurateRip database
Copy OK

Track 7

Filename D:\0_UPL\Lokua Kanza - 3\07 - Meu Amor.wav

Pre-gap length 0:00:01.69

Peak level 98.3 %
Extraction speed 5.0 X
Track quality 99.9 %
Test CRC 880F785B
Copy CRC 880F785B
Track not present in AccurateRip database
Copy OK

Track 8

Filename D:\0_UPL\Lokua Kanza - 3\08 - Be Yourself.wav

Pre-gap length 0:00:11.13

Peak level 98.2 %
Extraction speed 6.0 X
Track quality 100.0 %
Test CRC C1DC89DE
Copy CRC C1DC89DE
Track not present in AccurateRip database
Copy OK

Track 9

Filename D:\0_UPL\Lokua Kanza - 3\09 - Kuetu Mbali.wav

Pre-gap length 0:00:01.69

Peak level 98.3 %
Extraction speed 6.3 X
Track quality 100.0 %
Test CRC 854E8FF8
Copy CRC 854E8FF8
Track not present in AccurateRip database
Copy OK

Track 10

Filename D:\0_UPL\Lokua Kanza - 3\10 - Moninga.wav

Pre-gap length 0:00:01.69

Peak level 98.3 %
Extraction speed 6.4 X
Track quality 100.0 %
Test CRC 50BEFDD2
Copy CRC 50BEFDD2
Track not present in AccurateRip database
Copy OK

Track 11

Filename D:\0_UPL\Lokua Kanza - 3\11 - Milelo.wav

Pre-gap length 0:00:02.54

Peak level 96.3 %
Extraction speed 5.8 X
Track quality 100.0 %
Test CRC 7F6D5F14
Copy CRC 7F6D5F14
Track not present in AccurateRip database
Copy OK

Track 12

Filename D:\0_UPL\Lokua Kanza - 3\12 - Kimia.wav

Pre-gap length 0:00:00.30

Peak level 97.5 %
Extraction speed 7.0 X
Track quality 100.0 %
Test CRC 74DFC12F
Copy CRC 74DFC12F
Track not present in AccurateRip database
Copy OK


None of the tracks are present in the AccurateRip database

No errors occurred

End of status report

==== Log checksum 2471A771E030B2686603E17B01F60C50470F4FF614B08C731829CC849997FA08 ====


Lokua Kanza - 3 (1998) {Kanisa--RCA 74321628462}

Lokua Kanza - 3 (1998) {Kanisa--RCA 74321628462}


see more Lokua Kanza..


===