Featured TV Shows


12 Monkeys S01E03

Posted By: Tavaz
1080p (FullHD) / BDRip IMDb
12 Monkeys S01E03

12 Monkeys S01E03
BDRip | MKV | 1920x1080 | English | H264 @ 15358 kbps | AC-3 @ 640 kbps | 43 min 7 s | 4.82 GiB
Subtitles: English
Genre: Drama, Science Fiction

The provocative story of Cole, a time traveler from a decimated future in a high-stakes race against the clock. Utilizing a dangerous and untested method of time travel, he journeys from 2043 to the present day on a mission to locate and eradicate the source of a deadly plague that will all but annihilate the human race.

32a72893a43e4b728460e2006ee618a3.mkv (4.8 GB)



General
Unique ID : 178325827034756284412580064168315579809 (0x86284E156C3AF752B59F94530DD1EDA1)
Complete name : ./32a72893a43e4b728460e2006ee618a3.mkv
Format : Matroska
Format version : Version 4 / Version 2
File size : 4.82 GiB
Duration : 43 min 7 s
Overall bit rate : 16.0 Mb/s
Encoded date : UTC 2015-08-13 23:04:47
Writing application : mkvmerge v8.2.0 ('World of Adventure') 64bit
Writing library : libebml v1.3.1 + libmatroska v1.4.2

Video
ID : 1
Format : AVC
Format/Info : Advanced Video Codec
Format profile : High@L4.1
Format settings : CABAC / 4 Ref Frames
Format settings, CABAC : Yes
Format settings, RefFrames : 4 frames
Codec ID : V_MPEG4/ISO/AVC
Duration : 43 min 7 s
Bit rate : 15.4 Mb/s
Width : 1 920 pixels
Height : 1 080 pixels
Display aspect ratio : 16:9
Frame rate mode : Constant
Frame rate : 23.976 (24000/1001) FPS
Color space : YUV
Chroma subsampling : 4:2:0
Bit depth : 8 bits
Scan type : Progressive
Bits/(Pixel*Frame) : 0.309
Stream size : 4.63 GiB (96%)
Writing library : x264 core 146 r2538 121396c
Encoding settings : cabac=1 / ref=4 / deblock=1:-3:-3 / analyse=0x3:0x113 / me=umh / subme=10 / psy=1 / psy_rd=1.00:0.00 / mixed_ref=1 / me_range=24 / chroma_me=1 / trellis=2 / 8x8dct=1 / cqm=0 / deadzone=21,11 / fast_pskip=1 / chroma_qp_offset=-2 / threads=6 / lookahead_threads=1 / sliced_threads=0 / nr=0 / decimate=1 / interlaced=0 / bluray_compat=0 / constrained_intra=0 / bframes=8 / b_pyramid=2 / b_adapt=2 / b_bias=0 / direct=1 / weightb=1 / open_gop=0 / weightp=2 / keyint=250 / keyint_min=25 / scenecut=40 / intra_refresh=0 / rc_lookahead=60 / rc=crf / mbtree=0 / crf=18.0 / qcomp=0.60 / qpmin=0 / qpmax=69 / qpstep=4 / vbv_maxrate=62500 / vbv_bufsize=78125 / crf_max=0.0 / nal_hrd=none / filler=0 / ip_ratio=1.40 / pb_ratio=1.30 / aq=1:0.80
Default : Yes
Forced : No

Audio
ID : 2
Format : AC-3
Format/Info : Audio Coding 3
Format settings, Endianness : Big
Codec ID : A_AC3
Duration : 43 min 7 s
Bit rate mode : Constant
Bit rate : 640 kb/s
Channel(s) : 6 channels
Channel positions : Front: L C R, Side: L R, LFE
Sampling rate : 48.0 kHz
Frame rate : 31.250 FPS (1536 SPF)
Bit depth : 16 bits
Compression mode : Lossy
Stream size : 197 MiB (4%)
Language : English
Service kind : Complete Main
Default : Yes
Forced : No

Text #1
ID : 3
Format : UTF-8
Codec ID : S_TEXT/UTF8
Codec ID/Info : UTF-8 Plain Text
Duration : 29 s 404 ms
Bit rate : 82 b/s
Count of elements : 7
Stream size : 302 Bytes (0%)
Title : Forced
Language : English
Default : Yes
Forced : No

Text #2
ID : 4
Format : UTF-8
Codec ID : S_TEXT/UTF8
Codec ID/Info : UTF-8 Plain Text
Duration : 42 min 38 s
Bit rate : 63 b/s
Count of elements : 503
Stream size : 19.8 KiB (0%)
Language : English
Default : No
Forced : No

Menu
00:00:00.000 : en:Chapter 01
00:07:46.090 : en:Chapter 02
00:14:50.889 : en:Chapter 03
00:22:14.123 : en:Chapter 04
00:30:02.216 : en:Chapter 05
00:38:02.613 : en:Chapter 06





12 Monkeys S01E03


12 Monkeys S01E03


12 Monkeys S01E03


12 Monkeys S01E03


12 Monkeys S01E03

All episodes